Featured TV Shows


The Americans S05E03

Posted By: Tavaz
720p (HD) / HDTV IMDb
The Americans S05E03

The Americans S05E03
HDTV | MKV | 1280x720 | German | H264 @ 1825 kbps | AC-3 @ 192 kbps | 42 min 7 s | 620 MiB
Genre: Krimi, Drama

In einem Vorort von Washington, D.C. in den 1980er Jahren leben zwei KGB-Agenten unter falschem Namen und spionieren im Zentrum des Klassenfeindes.

Im Mittelpunkt stehen die KGB-Spione Phillip und Elizabeth Jennings. Eigentlich ist ihre Ehe arrangiert, doch von Tag zu Tag verlieben sich die beiden tatsächlich immer mehr ineinander. Ihre Beziehung wird allerdings immer komplizierter, je stärker sich der Kalte Krieg aufheizt. Dass die beiden inzwischen zwei Kinder, haben, die vollkommen in die amerikanische Gesellschaft eingebunden sind und nichts von der wahren Identität ihrer Eltern wissen, macht die Sache nicht einfacher.

TheAm S05E03 HD.mkv (620.2 MB)



General
Unique ID : 323697753501139254419009888112994275595 (0xF385EB6D84C753BFEE272D3644F1D10B)
Complete name : ./Die Amerikaner S05E03 German/TheAm S05E03 HD.mkv
Format : Matroska
Format version : Version 4 / Version 2
File size : 620 MiB
Duration : 42 min 7 s
Overall bit rate : 2 058 kb/s
Encoded date : UTC 2018-07-01 10:31:50
Writing application : mkvmerge v24.0.0 ('Beyond The Pale') 64-bit
Writing library : libebml v1.3.6 + libmatroska v1.4.9

Video
ID : 1
Format : AVC
Format/Info : Advanced Video Codec
Format profile : High@L4.1
Format settings : CABAC / 5 Ref Frames
Format settings, CABAC : Yes
Format settings, RefFrames : 5 frames
Codec ID : V_MPEG4/ISO/AVC
Duration : 42 min 7 s
Bit rate : 1 825 kb/s
Width : 1 280 pixels
Height : 720 pixels
Display aspect ratio : 16:9
Frame rate mode : Constant
Frame rate : 25.000 FPS
Color space : YUV
Chroma subsampling : 4:2:0
Bit depth : 8 bits
Scan type : Progressive
Bits/(Pixel*Frame) : 0.079
Stream size : 550 MiB (89%)
Writing library : x264 core 155 r2901 7d0ff22
Encoding settings : cabac=1 / ref=5 / deblock=1:-3:-3 / analyse=0x3:0x113 / me=umh / subme=9 / psy=1 / psy_rd=1.00:0.00 / mixed_ref=1 / me_range=16 / chroma_me=1 / trellis=2 / 8x8dct=1 / cqm=0 / deadzone=21,11 / fast_pskip=0 / chroma_qp_offset=-2 / threads=12 / lookahead_threads=1 / sliced_threads=0 / nr=0 / decimate=1 / interlaced=0 / bluray_compat=0 / constrained_intra=0 / bframes=3 / b_pyramid=2 / b_adapt=2 / b_bias=0 / direct=3 / weightb=1 / open_gop=0 / weightp=2 / keyint=250 / keyint_min=25 / scenecut=40 / intra_refresh=0 / rc_lookahead=50 / rc=crf / mbtree=1 / crf=18.0 / qcomp=0.60 / qpmin=0 / qpmax=69 / qpstep=4 / ip_ratio=1.40 / aq=1:1.00
Language : English
Default : Yes
Forced : No

Audio
ID : 2
Format : AC-3
Format/Info : Audio Coding 3
Format settings, Endianness : Big
Codec ID : A_AC3
Duration : 42 min 7 s
Bit rate mode : Constant
Bit rate : 192 kb/s
Channel(s) : 2 channels
Channel positions : Front: L R
Sampling rate : 48.0 kHz
Frame rate : 31.250 FPS (1536 SPF)
Bit depth : 16 bits
Compression mode : Lossy
Stream size : 57.9 MiB (9%)
Language : German
Service kind : Complete Main
Default : Yes
Forced : No





The Americans S05E03


The Americans S05E03


The Americans S05E03


The Americans S05E03


The Americans S05E03

All episodes