Featured TV Shows


The Americans S05E12

Posted By: Tavaz
720p (HD) / HDTV IMDb
The Americans S05E12

The Americans S05E12
HDTV | MKV | 1280x720 | German | H264 @ 1584 kbps | AC-3 @ 192 kbps | 47 min 19 s | 614 MiB
Genre: Krimi, Drama

In einem Vorort von Washington, D.C. in den 1980er Jahren leben zwei KGB-Agenten unter falschem Namen und spionieren im Zentrum des Klassenfeindes.

Im Mittelpunkt stehen die KGB-Spione Phillip und Elizabeth Jennings. Eigentlich ist ihre Ehe arrangiert, doch von Tag zu Tag verlieben sich die beiden tatsächlich immer mehr ineinander. Ihre Beziehung wird allerdings immer komplizierter, je stärker sich der Kalte Krieg aufheizt. Dass die beiden inzwischen zwei Kinder, haben, die vollkommen in die amerikanische Gesellschaft eingebunden sind und nichts von der wahren Identität ihrer Eltern wissen, macht die Sache nicht einfacher.

TheAm S05E12 HD.mkv (613.7 MB)



General
Unique ID : 317674114236912375615587882146517832251 (0xEEFDCF1527C9AB2A6024EA4ABE99523B)
Complete name : ./Die Amerikaner S05E12 German/TheAm S05E12 HD.mkv
Format : Matroska
Format version : Version 4 / Version 2
File size : 614 MiB
Duration : 47 min 19 s
Overall bit rate : 1 813 kb/s
Encoded date : UTC 2018-08-25 08:37:38
Writing application : mkvmerge v25.0.0 ('Prog Noir') 64-bit
Writing library : libebml v1.3.6 + libmatroska v1.4.9

Video
ID : 1
Format : AVC
Format/Info : Advanced Video Codec
Format profile : High@L4.1
Format settings : CABAC / 5 Ref Frames
Format settings, CABAC : Yes
Format settings, RefFrames : 5 frames
Codec ID : V_MPEG4/ISO/AVC
Duration : 47 min 19 s
Bit rate : 1 585 kb/s
Width : 1 280 pixels
Height : 720 pixels
Display aspect ratio : 16:9
Frame rate mode : Constant
Frame rate : 25.000 FPS
Color space : YUV
Chroma subsampling : 4:2:0
Bit depth : 8 bits
Scan type : Progressive
Bits/(Pixel*Frame) : 0.069
Stream size : 536 MiB (87%)
Writing library : x264 core 155 r2901 7d0ff22
Encoding settings : cabac=1 / ref=5 / deblock=1:-3:-3 / analyse=0x3:0x113 / me=umh / subme=9 / psy=1 / psy_rd=1.00:0.00 / mixed_ref=1 / me_range=16 / chroma_me=1 / trellis=2 / 8x8dct=1 / cqm=0 / deadzone=21,11 / fast_pskip=0 / chroma_qp_offset=-2 / threads=18 / lookahead_threads=1 / sliced_threads=0 / nr=0 / decimate=1 / interlaced=0 / bluray_compat=0 / constrained_intra=0 / bframes=3 / b_pyramid=2 / b_adapt=2 / b_bias=0 / direct=3 / weightb=1 / open_gop=0 / weightp=2 / keyint=250 / keyint_min=25 / scenecut=40 / intra_refresh=0 / rc_lookahead=50 / rc=crf / mbtree=1 / crf=18.0 / qcomp=0.60 / qpmin=0 / qpmax=69 / qpstep=4 / ip_ratio=1.40 / aq=1:1.00
Language : English
Default : Yes
Forced : No

Audio
ID : 2
Format : AC-3
Format/Info : Audio Coding 3
Format settings, Endianness : Big
Codec ID : A_AC3
Duration : 47 min 19 s
Bit rate mode : Constant
Bit rate : 192 kb/s
Channel(s) : 2 channels
Channel positions : Front: L R
Sampling rate : 48.0 kHz
Frame rate : 31.250 FPS (1536 SPF)
Bit depth : 16 bits
Compression mode : Lossy
Stream size : 65.0 MiB (11%)
Language : German
Service kind : Complete Main
Default : Yes
Forced : No





The Americans S05E12


The Americans S05E12


The Americans S05E12


The Americans S05E12


The Americans S05E12

All episodes