Featured TV Shows


The Americans S06E10

Posted By: Tavaz
1080p (FullHD) / WEBRip IMDb
The Americans S06E10

The Americans S06E10
WEBRip | MKV | 1920x1080 | English | H264 @ 10287 kbps | E-AC-3 @ 640 kbps | 1 h 9 min | 5.38 GiB
Subtitles: English
Genre: Crime, Drama

Set during the Cold War period in the 1980s, The Americans is the story of Elizabeth and Philip Jennings, two Soviet KGB officers posing as an American married couple in the suburbs of Washington D.C. and their neighbor, Stan Beeman, an FBI Counterintelligence agent.

f30667b9aed642c28abdbe9a1b82b12a.mkv (5.4 GB)



General
Complete name : ./f30667b9aed642c28abdbe9a1b82b12a.mkv
Format : Matroska
Format version : Version 4 / Version 2
File size : 5.38 GiB
Duration : 1 h 9 min
Overall bit rate : 11.1 Mb/s
Encoded date : UTC 2018-05-31 00:06:10
Writing application : mkvmerge v23.0.0 (master: 2421163 / deflate: e4384ad) [X86_64]
Writing library : libebml v1.3.6 + libmatroska v1.4.9

Video
ID : 1
Format : AVC
Format/Info : Advanced Video Codec
Format profile : High@L4
Format settings : CABAC / 4 Ref Frames
Format settings, CABAC : Yes
Format settings, RefFrames : 4 frames
Codec ID : V_MPEG4/ISO/AVC
Duration : 1 h 9 min
Bit rate : 10.3 Mb/s
Width : 1 920 pixels
Height : 1 080 pixels
Display aspect ratio : 16:9
Frame rate mode : Constant
Frame rate : 23.976 (24000/1001) FPS
Color space : YUV
Chroma subsampling : 4:2:0
Bit depth : 8 bits
Scan type : Progressive
Bits/(Pixel*Frame) : 0.207
Stream size : 4.97 GiB (92%)
Language : English
Default : Yes
Forced : No
Color range : Limited
Color primaries : BT.709
Transfer characteristics : BT.709
Matrix coefficients : BT.709

Audio
ID : 2
Format : E-AC-3
Format/Info : Enhanced Audio Coding 3
Format settings, Endianness : Big
Codec ID : A_EAC3
Duration : 1 h 9 min
Bit rate mode : Constant
Bit rate : 640 kb/s
Channel(s) : 6 channels
Channel positions : Front: L C R, Side: L R, LFE
Sampling rate : 48.0 kHz
Frame rate : 187.500 FPS (256 SPF)
Compression mode : Lossy
Stream size : 316 MiB (6%)
Language : English
Service kind : Complete Main
Default : Yes
Forced : No

Text #1
ID : 3
Format : UTF-8
Codec ID : S_TEXT/UTF8
Codec ID/Info : UTF-8 Plain Text
Title : English
Language : English
Default : No
Forced : No

Text #2
ID : 4
Format : UTF-8
Codec ID : S_TEXT/UTF8
Codec ID/Info : UTF-8 Plain Text
Title : English (SDH)
Language : English
Default : No
Forced : No





The Americans S06E10


The Americans S06E10


The Americans S06E10


The Americans S06E10


The Americans S06E10

All episodes