Featured TV Shows


The Americans S06E05

Posted By: Tavaz
SD / WEB-DL IMDb
The Americans S06E05

The Americans S06E05
WEB-DL | MKV | 720x404 | Italian | H264 @ 810 kbps | AAC @ 111 kbps | 55 min 40 s | 368 MiB
Subtitles: Italian
Genre: Crime, Drama

Set during the Cold War period in the 1980s, The Americans is the story of Elizabeth and Philip Jennings, two Soviet KGB officers posing as an American married couple in the suburbs of Washington D.C. and their neighbor, Stan Beeman, an FBI Counterintelligence agent.

The.Americans.6x05.La.Grande.Guerra.Patriottica.ITA.WEBMux.x264-NovaRip.mkv (368.4 MB)



General
Unique ID : 221149914780558727260156966680469836119 (0xA65FEC9F69D86FD7C478D740C6EA1157)
Complete name : ./The.Americans.6x05.La.Grande.Guerra.Patriottica.ITA.WEBMux.x264-NovaRip.mkv
Format : Matroska
Format version : Version 2
File size : 368 MiB
Duration : 55 min 40 s
Overall bit rate : 925 kb/s
Encoded date : UTC 2018-07-08 17:19:04
Writing application : mkvmerge v8.5.2 ('Crosses') 64bit
Writing library : libebml v1.3.3 + libmatroska v1.4.4

Video
ID : 1
Format : AVC
Format/Info : Advanced Video Codec
Format profile : High@L3.1
Format settings : CABAC / 6 Ref Frames
Format settings, CABAC : Yes
Format settings, RefFrames : 6 frames
Codec ID : V_MPEG4/ISO/AVC
Duration : 55 min 40 s
Bit rate : 811 kb/s
Width : 720 pixels
Height : 404 pixels
Display aspect ratio : 16:9
Frame rate mode : Constant
Frame rate : 25.000 FPS
Original frame rate : 23.976 (24000/1001) FPS
Color space : YUV
Chroma subsampling : 4:2:0
Bit depth : 8 bits
Scan type : Progressive
Bits/(Pixel*Frame) : 0.112
Stream size : 323 MiB (88%)
Writing library : x264 core 155 r2893 b00bcaf
Encoding settings : cabac=1 / ref=6 / deblock=1:-2:-2 / analyse=0x3:0x133 / me=umh / subme=7 / psy=1 / psy_rd=1.00:0.00 / mixed_ref=1 / me_range=16 / chroma_me=1 / trellis=2 / 8x8dct=1 / cqm=0 / deadzone=21,11 / fast_pskip=0 / chroma_qp_offset=-2 / threads=6 / lookahead_threads=1 / sliced_threads=0 / nr=0 / decimate=1 / interlaced=0 / bluray_compat=0 / constrained_intra=0 / bframes=5 / b_pyramid=2 / b_adapt=2 / b_bias=0 / direct=3 / weightb=1 / open_gop=0 / weightp=2 / keyint=250 / keyint_min=23 / scenecut=40 / intra_refresh=0 / rc_lookahead=40 / rc=crf / mbtree=1 / crf=18.0 / qcomp=0.60 / qpmin=0 / qpmax=69 / qpstep=4 / ip_ratio=1.40 / aq=1:1.00
Language : English
Default : Yes
Forced : Yes

Audio
ID : 2
Format : AAC
Format/Info : Advanced Audio Codec
Format profile : LC
Codec ID : A_AAC-2
Duration : 55 min 39 s
Bit rate : 112 kb/s
Channel(s) : 2 channels
Channel positions : Front: L R
Sampling rate : 48.0 kHz
Frame rate : 46.875 FPS (1024 SPF)
Compression mode : Lossy
Delay relative to video : 9 ms
Stream size : 44.6 MiB (12%)
Title : ITA
Language : Italian
Default : Yes
Forced : Yes

Text
ID : 3
Format : UTF-8
Codec ID : S_TEXT/UTF8
Codec ID/Info : UTF-8 Plain Text
Duration : 11 min 2 s
Bit rate : 34 b/s
Count of elements : 84
Stream size : 2.83 KiB (0%)
Title : ITA - Forced
Language : Italian
Default : Yes
Forced : Yes





The Americans S06E05


The Americans S06E05


The Americans S06E05


The Americans S06E05


The Americans S06E05

All episodes