Featured TV Shows


The Big Bang Theory S01E06

Posted By: Tavaz
SD / WEB-DL IMDb
The Big Bang Theory S01E06

The Big Bang Theory S01E06
WEB-DL | MKV | 720x404 | Italian | H264 @ 1046 kbps | AAC @ 112 kbps | 20 min 19 s | 175 MiB
Genre: Comedy

The Big Bang Theory is centered on five characters living in Pasadena, California: roommates Leonard Hofstadter and Sheldon Cooper; Penny, a waitress and aspiring actress who lives across the hall; and Leonard and Sheldon's equally geeky and socially awkward friends and co-workers, mechanical engineer Howard Wolowitz and astrophysicist Raj Koothrappali. The geekiness and intellect of the four guys is contrasted for comic effect with Penny's social skills and common sense.

the.big.bang.theory.11x06.ita.webmux.x264-novarip.part1.2.rar (50.0 MB)
The.Big.Bang.Theory.11x06.La.Rigenerazione.Del.Protone.ITA.WEBMux.x264-NovaRip.mkv (175.2 MB)
the.big.bang.theory.11x06.ita.webmux.x264-novarip.part2.1.rar (50.0 MB)
the.big.bang.theory.11x06.ita.webmux.x264-novarip.part2.2.rar (50.0 MB)
the.big.bang.theory.11x06.ita.webmux.x264-novarip.part4.2.rar (30.4 MB)
the.big.bang.theory.11x06.ita.webmux.x264-novarip.part3.2.rar (50.0 MB)
the.big.bang.theory.11x06.ita.webmux.x264-novarip.part4.1.rar (30.4 MB)
the.big.bang.theory.11x06.ita.webmux.x264-novarip.part1.1.rar (50.0 MB)
the.big.bang.theory.11x06.ita.webmux.x264-novarip.part3.1.rar (50.0 MB)



General
Unique ID : 314270250270250610259021573233682585159 (0xEC6E3FA1CBAB36027FF063371FBA9647)
Complete name : ./The.Big.Bang.Theory.11x06.La.Rigenerazione.Del.Protone.ITA.WEBMux.x264-NovaRip.mkv
Format : Matroska
Format version : Version 2
File size : 175 MiB
Duration : 20 min 19 s
Overall bit rate : 1 205 kb/s
Encoded date : UTC 2018-02-24 07:24:04
Writing application : mkvmerge v8.5.2 ('Crosses') 64bit
Writing library : libebml v1.3.3 + libmatroska v1.4.4

Video
ID : 1
Format : AVC
Format/Info : Advanced Video Codec
Format profile : High@L3.1
Format settings : CABAC / 6 Ref Frames
Format settings, CABAC : Yes
Format settings, RefFrames : 6 frames
Codec ID : V_MPEG4/ISO/AVC
Duration : 20 min 19 s
Bit rate : 1 046 kb/s
Width : 720 pixels
Height : 404 pixels
Display aspect ratio : 16:9
Frame rate mode : Constant
Frame rate : 25.000 FPS
Original frame rate : 23.976 (24000/1001) FPS
Color space : YUV
Chroma subsampling : 4:2:0
Bit depth : 8 bits
Scan type : Progressive
Bits/(Pixel*Frame) : 0.144
Stream size : 159 MiB (91%)
Writing library : x264 core 148 r2762 90a61ec
Encoding settings : cabac=1 / ref=6 / deblock=1:-2:-2 / analyse=0x3:0x133 / me=umh / subme=7 / psy=1 / psy_rd=1.00:0.00 / mixed_ref=1 / me_range=16 / chroma_me=1 / trellis=2 / 8x8dct=1 / cqm=0 / deadzone=21,11 / fast_pskip=0 / chroma_qp_offset=-2 / threads=6 / lookahead_threads=1 / sliced_threads=0 / nr=0 / decimate=1 / interlaced=0 / bluray_compat=0 / constrained_intra=0 / bframes=5 / b_pyramid=2 / b_adapt=2 / b_bias=0 / direct=3 / weightb=1 / open_gop=0 / weightp=2 / keyint=250 / keyint_min=23 / scenecut=40 / intra_refresh=0 / rc_lookahead=40 / rc=2pass / mbtree=1 / bitrate=1046 / ratetol=1.0 / qcomp=0.60 / qpmin=0 / qpmax=69 / qpstep=4 / cplxblur=20.0 / qblur=0.5 / ip_ratio=1.40 / aq=1:1.00
Language : English
Default : Yes
Forced : Yes

Audio
ID : 2
Format : AAC
Format/Info : Advanced Audio Codec
Format profile : LC
Codec ID : A_AAC-2
Duration : 20 min 19 s
Bit rate : 112 kb/s
Channel(s) : 2 channels
Channel positions : Front: L R
Sampling rate : 48.0 kHz
Frame rate : 46.875 FPS (1024 SPF)
Compression mode : Lossy
Delay relative to video : 9 ms
Stream size : 16.3 MiB (9%)
Title : ITA
Language : Italian
Default : Yes
Forced : Yes





The Big Bang Theory S01E06


The Big Bang Theory S01E06


The Big Bang Theory S01E06


The Big Bang Theory S01E06


The Big Bang Theory S01E06

All episodes