Featured TV Shows


The Big Bang Theory S11E09

Posted By: Tavaz
1080p (FullHD) / BDRip IMDb
The Big Bang Theory S11E09

The Big Bang Theory S11E09

The Big Bang Theory is centered on five characters living in Pasadena, California: roommates Leonard Hofstadter and Sheldon Cooper; Penny, a waitress and aspiring actress who lives across the hall; and Leonard and Sheldon's equally geeky and socially awkward friends and co-workers, mechanical engineer Howard Wolowitz and astrophysicist Raj Koothrappali. The geekiness and intellect of the four guys is contrasted for comic effect with Penny's social skills and common sense.

64859932dda142bf81b1f9810274a36e.mkv (2.4 GB)



General
Unique ID : 263276914990250188707253305568962653522 (0xC6114A17BA628B96F81C25B25A51AD52)
Complete name : ./64859932dda142bf81b1f9810274a36e.mkv
Format : Matroska
Format version : Version 4 / Version 2
File size : 2.42 GiB
Duration : 19 min 1 s
Overall bit rate mode : Variable
Overall bit rate : 18.2 Mb/s
Encoded date : UTC 2018-09-02 02:37:40
Writing application : mkvmerge v26.0.0 ('In The Game') 64-bit
Writing library : libebml v1.3.6 + libmatroska v1.4.9

Video
ID : 1
Format : AVC
Format/Info : Advanced Video Codec
Format profile : High@L4.1
Format settings : CABAC / 4 Ref Frames
Format settings, CABAC : Yes
Format settings, RefFrames : 4 frames
Codec ID : V_MPEG4/ISO/AVC
Duration : 19 min 1 s
Bit rate mode : Variable
Bit rate : 15.6 Mb/s
Maximum bit rate : 30.0 Mb/s
Width : 1 920 pixels
Height : 1 080 pixels
Display aspect ratio : 16:9
Frame rate mode : Constant
Frame rate : 23.976 (24000/1001) FPS
Color space : YUV
Chroma subsampling : 4:2:0
Bit depth : 8 bits
Scan type : Progressive
Bits/(Pixel*Frame) : 0.313
Stream size : 2.07 GiB (85%)
Title : MPEG-4 AVC Video / 15999 kbps / 1080p / 23.976 fps / 16:9 / High Profile 4.1
Language : English
Default : Yes
Forced : No

Audio
ID : 2
Format : DTS
Format/Info : Digital Theater Systems
Format profile : MA / Core
Mode : 16
Format settings, Endianness : Big
Codec ID : A_DTS
Duration : 19 min 1 s
Bit rate mode : Variable / Constant
Bit rate : 2 142 kb/s / 1 509 kb/s
Channel(s) : 6 channels
Channel positions : Front: L C R, Side: L R, LFE
Sampling rate : 48.0 kHz
Frame rate : 93.750 FPS (512 SPF)
Bit depth : 16 bits
Compression mode : Lossless / Lossy
Stream size : 292 MiB (12%)
Title : DTS-HD Master Audio / 5.1 / 48 kHz / 2142 kbps / 16-bit
Language : English
Default : Yes
Forced : No

Text #1
ID : 3
Format : PGS
Codec ID : S_HDMV/PGS
Codec ID/Info : Picture based subtitle format used on BDs/HD-DVDs
Duration : 18 min 53 s
Bit rate : 61.8 kb/s
Count of elements : 786
Stream size : 8.35 MiB (0%)
Title : SDH
Language : English
Default : No
Forced : No

Text #2
ID : 4
Format : PGS
Codec ID : S_HDMV/PGS
Codec ID/Info : Picture based subtitle format used on BDs/HD-DVDs
Duration : 18 min 56 s
Bit rate : 59.7 kb/s
Count of elements : 774
Stream size : 8.08 MiB (0%)
Language : Danish
Default : No
Forced : No

Text #3
ID : 5
Format : PGS
Codec ID : S_HDMV/PGS
Codec ID/Info : Picture based subtitle format used on BDs/HD-DVDs
Duration : 18 min 56 s
Bit rate : 59.5 kb/s
Count of elements : 784
Stream size : 8.06 MiB (0%)
Language : Finnish
Default : No
Forced : No

Text #4
ID : 6
Format : PGS
Codec ID : S_HDMV/PGS
Codec ID/Info : Picture based subtitle format used on BDs/HD-DVDs
Duration : 18 min 28 s
Bit rate : 52.2 kb/s
Count of elements : 594
Stream size : 6.90 MiB (0%)
Language : French
Default : No
Forced : No

Text #5
ID : 7
Format : PGS
Codec ID : S_HDMV/PGS
Codec ID/Info : Picture based subtitle format used on BDs/HD-DVDs
Duration : 18 min 56 s
Bit rate : 55.1 kb/s
Count of elements : 784
Stream size : 7.46 MiB (0%)
Language : Norwegian
Default : No
Forced : No

Text #6
ID : 8
Format : PGS
Codec ID : S_HDMV/PGS
Codec ID/Info : Picture based subtitle format used on BDs/HD-DVDs
Duration : 18 min 29 s
Bit rate : 53.1 kb/s
Count of elements : 598
Stream size : 7.03 MiB (0%)
Title : Brazilian
Language : Portuguese
Default : No
Forced : No

Text #7
ID : 9
Format : PGS
Codec ID : S_HDMV/PGS
Codec ID/Info : Picture based subtitle format used on BDs/HD-DVDs
Duration : 18 min 56 s
Bit rate : 58.7 kb/s
Count of elements : 790
Stream size : 7.95 MiB (0%)
Title : Castilian
Language : Spanish
Default : No
Forced : No

Text #8
ID : 10
Format : PGS
Codec ID : S_HDMV/PGS
Codec ID/Info : Picture based subtitle format used on BDs/HD-DVDs
Duration : 18 min 55 s
Bit rate : 53.7 kb/s
Count of elements : 612
Stream size : 7.27 MiB (0%)
Title : Latin American
Language : Spanish
Default : No
Forced : No

Text #9
ID : 11
Format : PGS
Codec ID : S_HDMV/PGS
Codec ID/Info : Picture based subtitle format used on BDs/HD-DVDs
Duration : 18 min 56 s
Bit rate : 49.8 kb/s
Count of elements : 788
Stream size : 6.74 MiB (0%)
Language : Swedish
Default : No
Forced : No

Menu
00:00:00.000 : :Chapter 1
00:04:55.587 : :Chapter 2
00:10:44.811 : :Chapter 3
00:18:02.123 : :Chapter 4
00:18:33.571 : :Chapter 5





The Big Bang Theory S11E09


The Big Bang Theory S11E09


The Big Bang Theory S11E09


The Big Bang Theory S11E09


The Big Bang Theory S11E09

All episodes