Featured TV Shows


The Big Bang Theory S11E23

Posted By: Tavaz
1080p (FullHD) / BDRip IMDb
The Big Bang Theory S11E23

The Big Bang Theory S11E23

The Big Bang Theory is centered on five characters living in Pasadena, California: roommates Leonard Hofstadter and Sheldon Cooper; Penny, a waitress and aspiring actress who lives across the hall; and Leonard and Sheldon's equally geeky and socially awkward friends and co-workers, mechanical engineer Howard Wolowitz and astrophysicist Raj Koothrappali. The geekiness and intellect of the four guys is contrasted for comic effect with Penny's social skills and common sense.

c0e7e4e0256b45498e324e674cef6526.mkv (2.6 GB)



General
Unique ID : 232566728147975588918656603200735231798 (0xAEF6B8FB0EBFE93F5A0B249AD94D3F36)
Complete name : ./c0e7e4e0256b45498e324e674cef6526.mkv
Format : Matroska
Format version : Version 4 / Version 2
File size : 2.57 GiB
Duration : 20 min 13 s
Overall bit rate mode : Variable
Overall bit rate : 18.2 Mb/s
Encoded date : UTC 2018-09-02 03:27:05
Writing application : mkvmerge v26.0.0 ('In The Game') 64-bit
Writing library : libebml v1.3.6 + libmatroska v1.4.9

Video
ID : 1
Format : AVC
Format/Info : Advanced Video Codec
Format profile : High@L4.1
Format settings : CABAC / 4 Ref Frames
Format settings, CABAC : Yes
Format settings, RefFrames : 4 frames
Codec ID : V_MPEG4/ISO/AVC
Duration : 20 min 13 s
Bit rate mode : Variable
Bit rate : 15.6 Mb/s
Maximum bit rate : 30.0 Mb/s
Width : 1 920 pixels
Height : 1 080 pixels
Display aspect ratio : 16:9
Frame rate mode : Constant
Frame rate : 23.976 (24000/1001) FPS
Color space : YUV
Chroma subsampling : 4:2:0
Bit depth : 8 bits
Scan type : Progressive
Bits/(Pixel*Frame) : 0.314
Stream size : 2.20 GiB (86%)
Title : MPEG-4 AVC Video / 15996 kbps / 1080p / 23.976 fps / 16:9 / High Profile 4.1
Language : English
Default : Yes
Forced : No

Audio
ID : 2
Format : DTS
Format/Info : Digital Theater Systems
Format profile : MA / Core
Mode : 16
Format settings, Endianness : Big
Codec ID : A_DTS
Duration : 20 min 13 s
Bit rate mode : Variable / Constant
Bit rate : 2 119 kb/s / 1 509 kb/s
Channel(s) : 6 channels
Channel positions : Front: L C R, Side: L R, LFE
Sampling rate : 48.0 kHz
Frame rate : 93.750 FPS (512 SPF)
Bit depth : 16 bits
Compression mode : Lossless / Lossy
Stream size : 306 MiB (12%)
Title : DTS-HD Master Audio / 5.1 / 48 kHz / 2119 kbps / 16-bit
Language : English
Default : Yes
Forced : No

Text #1
ID : 3
Format : PGS
Codec ID : S_HDMV/PGS
Codec ID/Info : Picture based subtitle format used on BDs/HD-DVDs
Duration : 19 min 44 s
Bit rate : 59.9 kb/s
Count of elements : 762
Stream size : 8.45 MiB (0%)
Title : SDH
Language : English
Default : No
Forced : No

Text #2
ID : 4
Format : PGS
Codec ID : S_HDMV/PGS
Codec ID/Info : Picture based subtitle format used on BDs/HD-DVDs
Duration : 20 min 4 s
Bit rate : 55.6 kb/s
Count of elements : 736
Stream size : 7.98 MiB (0%)
Language : Danish
Default : No
Forced : No

Text #3
ID : 5
Format : PGS
Codec ID : S_HDMV/PGS
Codec ID/Info : Picture based subtitle format used on BDs/HD-DVDs
Duration : 20 min 4 s
Bit rate : 54.7 kb/s
Count of elements : 736
Stream size : 7.85 MiB (0%)
Language : Finnish
Default : No
Forced : No

Text #4
ID : 6
Format : PGS
Codec ID : S_HDMV/PGS
Codec ID/Info : Picture based subtitle format used on BDs/HD-DVDs
Duration : 20 min 4 s
Bit rate : 47.0 kb/s
Count of elements : 664
Stream size : 6.75 MiB (0%)
Language : French
Default : No
Forced : No

Text #5
ID : 7
Format : PGS
Codec ID : S_HDMV/PGS
Codec ID/Info : Picture based subtitle format used on BDs/HD-DVDs
Duration : 20 min 4 s
Bit rate : 52.1 kb/s
Count of elements : 736
Stream size : 7.48 MiB (0%)
Language : Norwegian
Default : No
Forced : No

Text #6
ID : 8
Format : PGS
Codec ID : S_HDMV/PGS
Codec ID/Info : Picture based subtitle format used on BDs/HD-DVDs
Duration : 20 min 4 s
Bit rate : 49.5 kb/s
Count of elements : 650
Stream size : 7.11 MiB (0%)
Title : Brazilian
Language : Portuguese
Default : No
Forced : No

Text #7
ID : 9
Format : PGS
Codec ID : S_HDMV/PGS
Codec ID/Info : Picture based subtitle format used on BDs/HD-DVDs
Duration : 20 min 4 s
Bit rate : 55.7 kb/s
Count of elements : 736
Stream size : 8.00 MiB (0%)
Title : Castilian
Language : Spanish
Default : No
Forced : No

Text #8
ID : 10
Format : PGS
Codec ID : S_HDMV/PGS
Codec ID/Info : Picture based subtitle format used on BDs/HD-DVDs
Duration : 20 min 4 s
Bit rate : 52.0 kb/s
Count of elements : 650
Stream size : 7.46 MiB (0%)
Title : Latin American
Language : Spanish
Default : No
Forced : No

Text #9
ID : 11
Format : PGS
Codec ID : S_HDMV/PGS
Codec ID/Info : Picture based subtitle format used on BDs/HD-DVDs
Duration : 20 min 4 s
Bit rate : 48.2 kb/s
Count of elements : 738
Stream size : 6.92 MiB (0%)
Language : Swedish
Default : No
Forced : No

Menu
00:00:00.000 : :Chapter 1
00:01:24.167 : :Chapter 2
00:09:35.950 : :Chapter 3
00:18:07.962 : :Chapter 4
00:19:45.101 : :Chapter 5





The Big Bang Theory S11E23


The Big Bang Theory S11E23


The Big Bang Theory S11E23


The Big Bang Theory S11E23


The Big Bang Theory S11E23

All episodes