Featured TV Shows


The Big Bang Theory S12E04

Posted By: Tavaz
1080p (FullHD) / HDTV IMDb
The Big Bang Theory S12E04

The Big Bang Theory S12E04
HDTV | MKV | 1920x1080 | French / English | H264 @ 8261 kbps | E-AC-3 @ 192 kbps | 18 min 5 s | 1.09 GiB
Subtitles: French
Genre: Comedy


The Big Bang Theory is centered on five characters living in Pasadena, California: roommates Leonard Hofstadter and Sheldon Cooper; Penny, a waitress and aspiring actress who lives across the hall; and Leonard and Sheldon's equally geeky and socially awkward friends and co-workers, mechanical engineer Howard Wolowitz and astrophysicist Raj Koothrappali. The geekiness and intellect of the four guys is contrasted for comic effect with Penny's social skills and common sense.

f1de6a2396754d028e20fb8f6c997b60.mkv (1.1 GB)



General
Unique ID : 153744238351952549703747093265119155306 (0x73AA10309F12CCD4A2B752A5323F946A)
Complete name : ./f1de6a2396754d028e20fb8f6c997b60.mkv
Format : Matroska
Format version : Version 4 / Version 2
File size : 1.09 GiB
Duration : 18 min 5 s
Overall bit rate : 8 649 kb/s
Encoded date : UTC 2019-07-13 08:10:41
Writing application : mkvmerge v34.0.0 ('Sight and Seen') 64-bit
Writing library : libebml v1.3.7 + libmatroska v1.5.0

Video
ID : 1
Format : AVC
Format/Info : Advanced Video Codec
Format profile : High@L4
Format settings : CABAC / 4 Ref Frames
Format settings, CABAC : Yes
Format settings, RefFrames : 4 frames
Codec ID : V_MPEG4/ISO/AVC
Duration : 18 min 5 s
Bit rate : 8 261 kb/s
Width : 1 920 pixels
Height : 1 080 pixels
Display aspect ratio : 16:9
Frame rate mode : Variable
Frame rate : 50.000 FPS
Original frame rate : 25.000 FPS
Standard : Component
Color space : YUV
Chroma subsampling : 4:2:0
Bit depth : 8 bits
Scan type : Interlaced
Scan type, store method : Separated fields
Scan order : Top Field First
Bits/(Pixel*Frame) : 0.080
Stream size : 1.04 GiB (96%)
Title : The Big Bang Theory S12E04
Language : French
Default : Yes
Forced : No
Color range : Limited
Color primaries : BT.709
Transfer characteristics : BT.709
Matrix coefficients : BT.709

Audio #1
ID : 2
Format : E-AC-3
Format/Info : Enhanced Audio Coding 3
Format settings, Endianness : Big
Codec ID : A_EAC3
Duration : 18 min 5 s
Bit rate mode : Constant
Bit rate : 192 kb/s
Channel(s) : 2 channels
Channel positions : Front: L R
Sampling rate : 48.0 kHz
Frame rate : 187.500 FPS (256 SPF)
Compression mode : Lossy
Stream size : 24.8 MiB (2%)
Title : Français E-AC3 2.0
Language : French
Service kind : Complete Main
Default : Yes
Forced : No

Audio #2
ID : 3
Format : E-AC-3
Format/Info : Enhanced Audio Coding 3
Format settings, Endianness : Big
Codec ID : A_EAC3
Duration : 18 min 5 s
Bit rate mode : Constant
Bit rate : 192 kb/s
Channel(s) : 2 channels
Channel positions : Front: L R
Sampling rate : 48.0 kHz
Frame rate : 187.500 FPS (256 SPF)
Compression mode : Lossy
Stream size : 24.8 MiB (2%)
Title : Anglais E-AC3 2.0
Language : English
Service kind : Complete Main
Default : No
Forced : No

Text
ID : 5
Format : UTF-8
Codec ID : S_TEXT/UTF8
Codec ID/Info : UTF-8 Plain Text
Duration : 17 min 42 s
Bit rate : 92 b/s
Count of elements : 324
Stream size : 12.0 KiB (0%)
Title : Français
Language : French
Default : No
Forced : No





The Big Bang Theory S12E04


The Big Bang Theory S12E04


The Big Bang Theory S12E04


The Big Bang Theory S12E04


The Big Bang Theory S12E04

All episodes