Index
# A B C D E F G H I J K L M N O P Q R S T U V W Y Z
Tags
Language
Tags

Featured TV Shows


The Blacklist S02E01

Posted By: Tavaz
1080p (FullHD) / BDRip IMDb
The Blacklist S02E01

The Blacklist S02E01
BluRay Remux | MKV | 1920x1080 | English | H264 @ 21692 kbps | DTS | 42 min 55 s | 7.33 GiB
Subtitles: العربية, Suomi, Español, Svenska, Italiano, Nederlands, Dansk, English, हिन्दी, Português
Genre: Drama, Crime, Mystery


Raymond "Red" Reddington, one of the FBI's most wanted fugitives, surrenders in person at FBI Headquarters in Washington, D.C. He claims that he and the FBI have the same interests: bringing down dangerous criminals and terrorists. In the last two decades, he's made a list of criminals and terrorists that matter the most but the FBI cannot find because it does not know they exist. Reddington calls this "The Blacklist". Reddington will co-operate, but insists that he will speak only to Elizabeth Keen, a rookie FBI profiler.

QsgTDFvD7zonS36X.mkv (7.3 GB)



General
Unique ID : 195336755553555464335003733135619084992 (0x92F47D9CF14F0A1D049DE9E7DF5552C0)
Complete name : ./QsgTDFvD7zonS36X.mkv
Format : Matroska
Format version : Version 4 / Version 2
File size : 7.33 GiB
Duration : 42 min 55 s
Overall bit rate mode : Variable
Overall bit rate : 24.4 Mb/s
Encoded date : UTC 2017-04-01 15:35:35
Writing application : mkvmerge v10.0.0 ('To Drown In You') 64bit
Writing library : libebml v1.3.4 + libmatroska v1.4.5

Video
ID : 1
Format : AVC
Format/Info : Advanced Video Codec
Format profile : High@L4.1
Format settings : CABAC / 2 Ref Frames
Format settings, CABAC : Yes
Format settings, RefFrames : 2 frames
Codec ID : V_MPEG4/ISO/AVC
Duration : 42 min 55 s
Bit rate mode : Variable
Bit rate : 21.7 Mb/s
Width : 1 920 pixels
Height : 1 080 pixels
Display aspect ratio : 16:9
Frame rate mode : Constant
Frame rate : 23.976 (24000/1001) FPS
Color space : YUV
Chroma subsampling : 4:2:0
Bit depth : 8 bits
Scan type : Progressive
Bits/(Pixel*Frame) : 0.436
Stream size : 6.50 GiB (89%)
Title : MPEG-4 AVC Video / 21692 kbps / 1080p / 23.976 fps / 16:9 / High Profile 4.1
Default : Yes
Forced : No

Audio
ID : 2
Format : DTS
Format/Info : Digital Theater Systems
Format profile : MA / Core
Mode : 16
Format settings, Endianness : Big
Codec ID : A_DTS
Duration : 42 min 55 s
Bit rate mode : Variable / Constant
Bit rate : 2 285 kb/s / 1 509 kb/s
Channel(s) : 6 channels
Channel positions : Front: L C R, Side: L R, LFE
Sampling rate : 48.0 kHz
Frame rate : 93.750 FPS (512 SPF)
Bit depth : 16 bits
Compression mode : Lossless / Lossy
Stream size : 702 MiB (9%)
Title : DTS-HD Master Audio / 5.1 / 48 kHz / 2285 kbps / 16-bit
Language : English
Default : Yes
Forced : No

Text #1
ID : 3
Format : PGS
Codec ID : S_HDMV/PGS
Codec ID/Info : Picture based subtitle format used on BDs/HD-DVDs
Duration : 41 min 24 s
Bit rate : 41.2 kb/s
Count of elements : 1070
Stream size : 12.2 MiB (0%)
Language : English
Default : No
Forced : No

Text #2
ID : 4
Format : PGS
Codec ID : S_HDMV/PGS
Codec ID/Info : Picture based subtitle format used on BDs/HD-DVDs
Duration : 42 min 19 s
Bit rate : 47.3 kb/s
Count of elements : 1316
Stream size : 14.3 MiB (0%)
Title : SDH
Language : English
Default : No
Forced : No

Text #3
ID : 5
Format : PGS
Codec ID : S_HDMV/PGS
Codec ID/Info : Picture based subtitle format used on BDs/HD-DVDs
Duration : 41 min 24 s
Bit rate : 23.9 kb/s
Count of elements : 1084
Stream size : 7.08 MiB (0%)
Language : Arabic
Default : No
Forced : No

Text #4
ID : 6
Format : PGS
Codec ID : S_HDMV/PGS
Codec ID/Info : Picture based subtitle format used on BDs/HD-DVDs
Duration : 41 min 24 s
Bit rate : 28.5 kb/s
Count of elements : 1026
Stream size : 8.43 MiB (0%)
Language : Danish
Default : No
Forced : No

Text #5
ID : 7
Format : PGS
Codec ID : S_HDMV/PGS
Codec ID/Info : Picture based subtitle format used on BDs/HD-DVDs
Duration : 40 min 53 s
Bit rate : 40.1 kb/s
Count of elements : 1040
Stream size : 11.7 MiB (0%)
Language : Dutch
Default : No
Forced : No

Text #6
ID : 8
Format : PGS
Codec ID : S_HDMV/PGS
Codec ID/Info : Picture based subtitle format used on BDs/HD-DVDs
Duration : 40 min 53 s
Bit rate : 39.6 kb/s
Count of elements : 1072
Stream size : 11.6 MiB (0%)
Language : Finnish
Default : No
Forced : No

Text #7
ID : 9
Format : PGS
Codec ID : S_HDMV/PGS
Codec ID/Info : Picture based subtitle format used on BDs/HD-DVDs
Duration : 41 min 24 s
Bit rate : 34.9 kb/s
Count of elements : 1082
Stream size : 10.3 MiB (0%)
Language : Hindi
Default : No
Forced : No

Text #8
ID : 10
Format : PGS
Codec ID : S_HDMV/PGS
Codec ID/Info : Picture based subtitle format used on BDs/HD-DVDs
Duration : 41 min 24 s
Bit rate : 43.8 kb/s
Count of elements : 1082
Stream size : 13.0 MiB (0%)
Language : Italian
Default : No
Forced : No

Text #9
ID : 11
Format : PGS
Codec ID : S_HDMV/PGS
Codec ID/Info : Picture based subtitle format used on BDs/HD-DVDs
Duration : 41 min 24 s
Bit rate : 38.6 kb/s
Count of elements : 1082
Stream size : 11.4 MiB (0%)
Language : Norwegian
Default : No
Forced : No

Text #10
ID : 12
Format : PGS
Codec ID : S_HDMV/PGS
Codec ID/Info : Picture based subtitle format used on BDs/HD-DVDs
Duration : 41 min 24 s
Bit rate : 41.7 kb/s
Count of elements : 1086
Stream size : 12.4 MiB (0%)
Language : Portuguese
Default : No
Forced : No

Text #11
ID : 13
Format : PGS
Codec ID : S_HDMV/PGS
Codec ID/Info : Picture based subtitle format used on BDs/HD-DVDs
Duration : 41 min 24 s
Bit rate : 42.3 kb/s
Count of elements : 1092
Stream size : 12.5 MiB (0%)
Language : Spanish
Default : No
Forced : No

Text #12
ID : 14
Format : PGS
Codec ID : S_HDMV/PGS
Codec ID/Info : Picture based subtitle format used on BDs/HD-DVDs
Duration : 42 min 16 s
Bit rate : 40.9 kb/s
Count of elements : 1084
Stream size : 12.4 MiB (0%)
Language : Swedish
Default : No
Forced : No

Menu
00:00:00.000 : en:Chapter 1
00:04:39.154 : en:Chapter 2
00:17:17.119 : en:Chapter 3
00:23:44.340 : en:Chapter 4
00:30:49.139 : en:Chapter 5
00:35:48.104 : en:Chapter 6
00:42:18.828 : en:Chapter 7





The Blacklist S02E01


The Blacklist S02E01


The Blacklist S02E01


The Blacklist S02E01


The Blacklist S02E01

All episodes