Index
# A B C D E F G H I J K L M N O P Q R S T U V W Y Z
Tags
Language
Tags

Featured TV Shows


The Blacklist S02E15

Posted By: Tavaz
1080p (FullHD) / BDRip IMDb
The Blacklist S02E15

The Blacklist S02E15
BluRay Remux | MKV | 1920x1080 | English | H264 @ 21755 kbps | DTS | 42 min 28 s | 7.28 GiB
Subtitles: العربية, Suomi, Español, Svenska, Italiano, Nederlands, Dansk, English, हिन्दी, Português
Genre: Drama, Crime, Mystery


Raymond "Red" Reddington, one of the FBI's most wanted fugitives, surrenders in person at FBI Headquarters in Washington, D.C. He claims that he and the FBI have the same interests: bringing down dangerous criminals and terrorists. In the last two decades, he's made a list of criminals and terrorists that matter the most but the FBI cannot find because it does not know they exist. Reddington calls this "The Blacklist". Reddington will co-operate, but insists that he will speak only to Elizabeth Keen, a rookie FBI profiler.

7nMhBt0bKxB3AVkA.mkv (7.3 GB)



General
Unique ID : 50624385796705934719789013283298359266 (0x2615E6ECE4C0025015A22477F8AC37E2)
Complete name : ./7nMhBt0bKxB3AVkA.mkv
Format : Matroska
Format version : Version 4 / Version 2
File size : 7.28 GiB
Duration : 42 min 28 s
Overall bit rate mode : Variable
Overall bit rate : 24.6 Mb/s
Encoded date : UTC 2017-04-01 18:24:32
Writing application : mkvmerge v10.0.0 ('To Drown In You') 64bit
Writing library : libebml v1.3.4 + libmatroska v1.4.5

Video
ID : 1
Format : AVC
Format/Info : Advanced Video Codec
Format profile : High@L4.1
Format settings : CABAC / 2 Ref Frames
Format settings, CABAC : Yes
Format settings, RefFrames : 2 frames
Codec ID : V_MPEG4/ISO/AVC
Duration : 42 min 28 s
Bit rate mode : Variable
Bit rate : 21.8 Mb/s
Width : 1 920 pixels
Height : 1 080 pixels
Display aspect ratio : 16:9
Frame rate mode : Constant
Frame rate : 23.976 (24000/1001) FPS
Color space : YUV
Chroma subsampling : 4:2:0
Bit depth : 8 bits
Scan type : Progressive
Bits/(Pixel*Frame) : 0.438
Stream size : 6.45 GiB (89%)
Title : MPEG-4 AVC Video / 21756 kbps / 1080p / 23.976 fps / 16:9 / High Profile 4.1
Default : Yes
Forced : No

Audio
ID : 2
Format : DTS
Format/Info : Digital Theater Systems
Format profile : MA / Core
Mode : 16
Format settings, Endianness : Big
Codec ID : A_DTS
Duration : 42 min 28 s
Bit rate mode : Variable / Constant
Bit rate : 2 204 kb/s / 1 509 kb/s
Channel(s) : 6 channels
Channel positions : Front: L C R, Side: L R, LFE
Sampling rate : 48.0 kHz
Frame rate : 93.750 FPS (512 SPF)
Bit depth : 16 bits
Compression mode : Lossless / Lossy
Stream size : 669 MiB (9%)
Title : DTS-HD Master Audio / 5.1 / 48 kHz / 2204 kbps / 16-bit
Language : English
Default : Yes
Forced : No

Text #1
ID : 3
Format : PGS
Codec ID : S_HDMV/PGS
Codec ID/Info : Picture based subtitle format used on BDs/HD-DVDs
Duration : 24 min 20 s
Bit rate : 1 613 b/s
Count of elements : 36
Stream size : 288 KiB (0%)
Title : Forced
Language : English
Default : Yes
Forced : No

Text #2
ID : 4
Format : PGS
Codec ID : S_HDMV/PGS
Codec ID/Info : Picture based subtitle format used on BDs/HD-DVDs
Duration : 41 min 41 s
Bit rate : 55.3 kb/s
Count of elements : 1312
Stream size : 16.5 MiB (0%)
Language : English
Default : No
Forced : No

Text #3
ID : 5
Format : PGS
Codec ID : S_HDMV/PGS
Codec ID/Info : Picture based subtitle format used on BDs/HD-DVDs
Duration : 41 min 50 s
Bit rate : 58.7 kb/s
Count of elements : 1458
Stream size : 17.6 MiB (0%)
Title : SDH
Language : English
Default : No
Forced : No

Text #4
ID : 6
Format : PGS
Codec ID : S_HDMV/PGS
Codec ID/Info : Picture based subtitle format used on BDs/HD-DVDs
Duration : 41 min 42 s
Bit rate : 29.7 kb/s
Count of elements : 1322
Stream size : 8.85 MiB (0%)
Language : Arabic
Default : No
Forced : No

Text #5
ID : 7
Format : PGS
Codec ID : S_HDMV/PGS
Codec ID/Info : Picture based subtitle format used on BDs/HD-DVDs
Duration : 41 min 41 s
Bit rate : 46.7 kb/s
Count of elements : 1296
Stream size : 13.9 MiB (0%)
Language : Danish
Default : No
Forced : No

Text #6
ID : 8
Format : PGS
Codec ID : S_HDMV/PGS
Codec ID/Info : Picture based subtitle format used on BDs/HD-DVDs
Duration : 41 min 41 s
Bit rate : 51.7 kb/s
Count of elements : 1270
Stream size : 15.4 MiB (0%)
Language : Dutch
Default : No
Forced : No

Text #7
ID : 9
Format : PGS
Codec ID : S_HDMV/PGS
Codec ID/Info : Picture based subtitle format used on BDs/HD-DVDs
Duration : 41 min 41 s
Bit rate : 45.3 kb/s
Count of elements : 1116
Stream size : 13.5 MiB (0%)
Language : Finnish
Default : No
Forced : No

Text #8
ID : 10
Format : PGS
Codec ID : S_HDMV/PGS
Codec ID/Info : Picture based subtitle format used on BDs/HD-DVDs
Duration : 41 min 42 s
Bit rate : 46.2 kb/s
Count of elements : 1320
Stream size : 13.8 MiB (0%)
Language : Hindi
Default : No
Forced : No

Text #9
ID : 11
Format : PGS
Codec ID : S_HDMV/PGS
Codec ID/Info : Picture based subtitle format used on BDs/HD-DVDs
Duration : 41 min 41 s
Bit rate : 51.9 kb/s
Count of elements : 1318
Stream size : 15.5 MiB (0%)
Language : Italian
Default : No
Forced : No

Text #10
ID : 12
Format : PGS
Codec ID : S_HDMV/PGS
Codec ID/Info : Picture based subtitle format used on BDs/HD-DVDs
Duration : 41 min 41 s
Bit rate : 53.1 kb/s
Count of elements : 1322
Stream size : 15.8 MiB (0%)
Language : Norwegian
Default : No
Forced : No

Text #11
ID : 13
Format : PGS
Codec ID : S_HDMV/PGS
Codec ID/Info : Picture based subtitle format used on BDs/HD-DVDs
Duration : 41 min 42 s
Bit rate : 55.0 kb/s
Count of elements : 1326
Stream size : 16.4 MiB (0%)
Language : Portuguese
Default : No
Forced : No

Text #12
ID : 14
Format : PGS
Codec ID : S_HDMV/PGS
Codec ID/Info : Picture based subtitle format used on BDs/HD-DVDs
Duration : 41 min 42 s
Bit rate : 55.9 kb/s
Count of elements : 1350
Stream size : 16.7 MiB (0%)
Language : Spanish
Default : No
Forced : No

Text #13
ID : 15
Format : PGS
Codec ID : S_HDMV/PGS
Codec ID/Info : Picture based subtitle format used on BDs/HD-DVDs
Duration : 42 min 23 s
Bit rate : 49.3 kb/s
Count of elements : 1246
Stream size : 14.9 MiB (0%)
Language : Swedish
Default : No
Forced : No

Menu
00:00:00.000 : en:Chapter 1
00:01:42.644 : en:Chapter 2
00:09:20.727 : en:Chapter 3
00:15:33.724 : en:Chapter 4
00:22:50.661 : en:Chapter 5
00:29:37.067 : en:Chapter 6
00:37:18.486 : en:Chapter 7
00:41:50.133 : en:Chapter 8





The Blacklist S02E15


The Blacklist S02E15


The Blacklist S02E15


The Blacklist S02E15


The Blacklist S02E15

All episodes