Index
# A B C D E F G H I J K L M N O P Q R S T U V W Y Z
Tags
Language
Tags

Featured TV Shows


The Blacklist S02E18

Posted By: Tavaz
1080p (FullHD) / BDRip IMDb
The Blacklist S02E18

The Blacklist S02E18
BluRay Remux | MKV | 1920x1080 | English | H264 @ 21747 kbps | DTS | 43 min 26 s | 7.41 GiB
Subtitles: العربية, Suomi, Español, Svenska, Italiano, Nederlands, Dansk, English, हिन्दी, Português
Genre: Drama, Crime, Mystery


Raymond "Red" Reddington, one of the FBI's most wanted fugitives, surrenders in person at FBI Headquarters in Washington, D.C. He claims that he and the FBI have the same interests: bringing down dangerous criminals and terrorists. In the last two decades, he's made a list of criminals and terrorists that matter the most but the FBI cannot find because it does not know they exist. Reddington calls this "The Blacklist". Reddington will co-operate, but insists that he will speak only to Elizabeth Keen, a rookie FBI profiler.

ixLUYHEXCatqW9qc.mkv (7.4 GB)



General
Unique ID : 231309502287117514657290947314946512044 (0xAE0496F5C459D25BF4DAD2225DA194AC)
Complete name : ./ixLUYHEXCatqW9qc.mkv
Format : Matroska
Format version : Version 4 / Version 2
File size : 7.41 GiB
Duration : 43 min 26 s
Overall bit rate mode : Variable
Overall bit rate : 24.4 Mb/s
Encoded date : UTC 2017-04-01 18:29:32
Writing application : mkvmerge v10.0.0 ('To Drown In You') 64bit
Writing library : libebml v1.3.4 + libmatroska v1.4.5

Video
ID : 1
Format : AVC
Format/Info : Advanced Video Codec
Format profile : High@L4.1
Format settings : CABAC / 2 Ref Frames
Format settings, CABAC : Yes
Format settings, RefFrames : 2 frames
Codec ID : V_MPEG4/ISO/AVC
Duration : 43 min 26 s
Bit rate mode : Variable
Bit rate : 21.7 Mb/s
Width : 1 920 pixels
Height : 1 080 pixels
Display aspect ratio : 16:9
Frame rate mode : Constant
Frame rate : 23.976 (24000/1001) FPS
Color space : YUV
Chroma subsampling : 4:2:0
Bit depth : 8 bits
Scan type : Progressive
Bits/(Pixel*Frame) : 0.437
Stream size : 6.60 GiB (89%)
Title : MPEG-4 AVC Video / 21747 kbps / 1080p / 23.976 fps / 16:9 / High Profile 4.1
Default : Yes
Forced : No

Audio
ID : 2
Format : DTS
Format/Info : Digital Theater Systems
Format profile : MA / Core
Mode : 16
Format settings, Endianness : Big
Codec ID : A_DTS
Duration : 43 min 26 s
Bit rate mode : Variable / Constant
Bit rate : 2 172 kb/s / 1 509 kb/s
Channel(s) : 6 channels
Channel positions : Front: L C R, Side: L R, LFE
Sampling rate : 48.0 kHz
Frame rate : 93.750 FPS (512 SPF)
Bit depth : 16 bits
Compression mode : Lossless / Lossy
Stream size : 675 MiB (9%)
Title : DTS-HD Master Audio / 5.1 / 48 kHz / 2172 kbps / 16-bit
Language : English
Default : Yes
Forced : No

Text #1
ID : 3
Format : PGS
Codec ID : S_HDMV/PGS
Codec ID/Info : Picture based subtitle format used on BDs/HD-DVDs
Duration : 42 min 34 s
Bit rate : 45.0 kb/s
Count of elements : 1188
Stream size : 13.7 MiB (0%)
Language : English
Default : No
Forced : No

Text #2
ID : 4
Format : PGS
Codec ID : S_HDMV/PGS
Codec ID/Info : Picture based subtitle format used on BDs/HD-DVDs
Duration : 42 min 49 s
Bit rate : 47.1 kb/s
Count of elements : 1288
Stream size : 14.4 MiB (0%)
Title : SDH
Language : English
Default : No
Forced : No

Text #3
ID : 5
Format : PGS
Codec ID : S_HDMV/PGS
Codec ID/Info : Picture based subtitle format used on BDs/HD-DVDs
Duration : 42 min 34 s
Bit rate : 25.2 kb/s
Count of elements : 1216
Stream size : 7.69 MiB (0%)
Language : Arabic
Default : No
Forced : No

Text #4
ID : 6
Format : PGS
Codec ID : S_HDMV/PGS
Codec ID/Info : Picture based subtitle format used on BDs/HD-DVDs
Duration : 42 min 34 s
Bit rate : 32.1 kb/s
Count of elements : 1164
Stream size : 9.76 MiB (0%)
Language : Danish
Default : No
Forced : No

Text #5
ID : 7
Format : PGS
Codec ID : S_HDMV/PGS
Codec ID/Info : Picture based subtitle format used on BDs/HD-DVDs
Duration : 42 min 34 s
Bit rate : 40.3 kb/s
Count of elements : 1196
Stream size : 12.3 MiB (0%)
Language : Dutch
Default : No
Forced : No

Text #6
ID : 8
Format : PGS
Codec ID : S_HDMV/PGS
Codec ID/Info : Picture based subtitle format used on BDs/HD-DVDs
Duration : 42 min 34 s
Bit rate : 38.6 kb/s
Count of elements : 1040
Stream size : 11.7 MiB (0%)
Language : Finnish
Default : No
Forced : No

Text #7
ID : 9
Format : PGS
Codec ID : S_HDMV/PGS
Codec ID/Info : Picture based subtitle format used on BDs/HD-DVDs
Duration : 42 min 34 s
Bit rate : 38.0 kb/s
Count of elements : 1216
Stream size : 11.6 MiB (0%)
Language : Hindi
Default : No
Forced : No

Text #8
ID : 10
Format : PGS
Codec ID : S_HDMV/PGS
Codec ID/Info : Picture based subtitle format used on BDs/HD-DVDs
Duration : 42 min 34 s
Bit rate : 45.3 kb/s
Count of elements : 1214
Stream size : 13.8 MiB (0%)
Language : Italian
Default : No
Forced : No

Text #9
ID : 11
Format : PGS
Codec ID : S_HDMV/PGS
Codec ID/Info : Picture based subtitle format used on BDs/HD-DVDs
Duration : 42 min 34 s
Bit rate : 40.6 kb/s
Count of elements : 1204
Stream size : 12.4 MiB (0%)
Language : Norwegian
Default : No
Forced : No

Text #10
ID : 12
Format : PGS
Codec ID : S_HDMV/PGS
Codec ID/Info : Picture based subtitle format used on BDs/HD-DVDs
Duration : 42 min 34 s
Bit rate : 47.8 kb/s
Count of elements : 1216
Stream size : 14.6 MiB (0%)
Language : Portuguese
Default : No
Forced : No

Text #11
ID : 13
Format : PGS
Codec ID : S_HDMV/PGS
Codec ID/Info : Picture based subtitle format used on BDs/HD-DVDs
Duration : 42 min 34 s
Bit rate : 49.9 kb/s
Count of elements : 1270
Stream size : 15.2 MiB (0%)
Language : Spanish
Default : No
Forced : No

Text #12
ID : 14
Format : PGS
Codec ID : S_HDMV/PGS
Codec ID/Info : Picture based subtitle format used on BDs/HD-DVDs
Duration : 43 min 15 s
Bit rate : 45.7 kb/s
Count of elements : 1218
Stream size : 14.2 MiB (0%)
Language : Swedish
Default : No
Forced : No

Menu
00:00:00.000 : en:Chapter 1
00:02:12.007 : en:Chapter 2
00:08:32.971 : en:Chapter 3
00:16:36.162 : en:Chapter 4
00:21:44.970 : en:Chapter 5
00:27:53.422 : en:Chapter 6
00:34:25.105 : en:Chapter 7
00:42:49.108 : en:Chapter 8





The Blacklist S02E18


The Blacklist S02E18


The Blacklist S02E18


The Blacklist S02E18


The Blacklist S02E18

All episodes