Index
# A B C D E F G H I J K L M N O P Q R S T U V W Y Z
Tags
Language
Tags

Featured TV Shows


The Blacklist S02E19

Posted By: Tavaz
1080p (FullHD) / BDRip IMDb
The Blacklist S02E19

The Blacklist S02E19
BluRay Remux | MKV | 1920x1080 | English | H264 @ 21744 kbps | DTS | 42 min 2 s | 7.31 GiB
Subtitles: العربية, Suomi, Español, Svenska, Italiano, Nederlands, Dansk, English, हिन्दी, Português
Genre: Drama, Crime, Mystery


Raymond "Red" Reddington, one of the FBI's most wanted fugitives, surrenders in person at FBI Headquarters in Washington, D.C. He claims that he and the FBI have the same interests: bringing down dangerous criminals and terrorists. In the last two decades, he's made a list of criminals and terrorists that matter the most but the FBI cannot find because it does not know they exist. Reddington calls this "The Blacklist". Reddington will co-operate, but insists that he will speak only to Elizabeth Keen, a rookie FBI profiler.

eIvYecBFiuMrUuA0.mkv (7.3 GB)



General
Unique ID : 154316176260386958511906688757594993100 (0x741836E7EB93DF31A0FB0CDDA3A631CC)
Complete name : ./eIvYecBFiuMrUuA0.mkv
Format : Matroska
Format version : Version 4 / Version 2
File size : 7.31 GiB
Duration : 42 min 2 s
Overall bit rate mode : Variable
Overall bit rate : 24.9 Mb/s
Encoded date : UTC 2017-04-01 18:31:06
Writing application : mkvmerge v10.0.0 ('To Drown In You') 64bit
Writing library : libebml v1.3.4 + libmatroska v1.4.5

Video
ID : 1
Format : AVC
Format/Info : Advanced Video Codec
Format profile : High@L4.1
Format settings : CABAC / 2 Ref Frames
Format settings, CABAC : Yes
Format settings, RefFrames : 2 frames
Format settings, GOP : M=1, N=10
Codec ID : V_MPEG4/ISO/AVC
Duration : 42 min 2 s
Bit rate mode : Variable
Bit rate : 21.7 Mb/s
Width : 1 920 pixels
Height : 1 080 pixels
Display aspect ratio : 16:9
Frame rate mode : Constant
Frame rate : 23.976 (24000/1001) FPS
Color space : YUV
Chroma subsampling : 4:2:0
Bit depth : 8 bits
Scan type : Progressive
Bits/(Pixel*Frame) : 0.437
Stream size : 6.38 GiB (87%)
Title : MPEG-4 AVC Video / 21744 kbps / 1080p / 23.976 fps / 16:9 / High Profile 4.1
Default : Yes
Forced : No

Audio #1
ID : 2
Format : DTS
Format/Info : Digital Theater Systems
Format profile : MA / Core
Mode : 16
Format settings, Endianness : Big
Codec ID : A_DTS
Duration : 42 min 2 s
Bit rate mode : Variable / Constant
Bit rate : 2 247 kb/s / 1 509 kb/s
Channel(s) : 6 channels
Channel positions : Front: L C R, Side: L R, LFE
Sampling rate : 48.0 kHz
Frame rate : 93.750 FPS (512 SPF)
Bit depth : 16 bits
Compression mode : Lossless / Lossy
Stream size : 676 MiB (9%)
Title : DTS-HD Master Audio / 5.1 / 48 kHz / 2247 kbps / 16-bit
Language : English
Default : Yes
Forced : No

Audio #2
ID : 3
Format : AC-3
Format/Info : Audio Coding 3
Mode : Dolby Digital
Format settings, Endianness : Big
Codec ID : A_AC3
Duration : 42 min 2 s
Bit rate mode : Constant
Bit rate : 192 kb/s
Channel(s) : 2 channels
Channel positions : Front: L R
Sampling rate : 48.0 kHz
Frame rate : 31.250 FPS (1536 SPF)
Bit depth : 16 bits
Compression mode : Lossy
Stream size : 57.7 MiB (1%)
Title : Commentary with Executive Producers Jon Bokenkamp and John Eisendrath (Dolby Digital Audio / 2.0 / 48 kHz / 192 kbps / Dolby Surround)
Language : English
Service kind : Complete Main
Default : No
Forced : No

Text #1
ID : 4
Format : PGS
Codec ID : S_HDMV/PGS
Codec ID/Info : Picture based subtitle format used on BDs/HD-DVDs
Duration : 41 min 18 s
Bit rate : 37.9 kb/s
Count of elements : 970
Stream size : 11.2 MiB (0%)
Language : English
Default : No
Forced : No

Text #2
ID : 5
Format : PGS
Codec ID : S_HDMV/PGS
Codec ID/Info : Picture based subtitle format used on BDs/HD-DVDs
Duration : 41 min 26 s
Bit rate : 42.3 kb/s
Count of elements : 1154
Stream size : 12.5 MiB (0%)
Title : SDH
Language : English
Default : No
Forced : No

Text #3
ID : 6
Format : PGS
Codec ID : S_HDMV/PGS
Codec ID/Info : Picture based subtitle format used on BDs/HD-DVDs
Duration : 41 min 18 s
Bit rate : 22.6 kb/s
Count of elements : 982
Stream size : 6.68 MiB (0%)
Language : Arabic
Default : No
Forced : No

Text #4
ID : 7
Format : PGS
Codec ID : S_HDMV/PGS
Codec ID/Info : Picture based subtitle format used on BDs/HD-DVDs
Duration : 41 min 18 s
Bit rate : 27.1 kb/s
Count of elements : 962
Stream size : 8.00 MiB (0%)
Language : Danish
Default : No
Forced : No

Text #5
ID : 8
Format : PGS
Codec ID : S_HDMV/PGS
Codec ID/Info : Picture based subtitle format used on BDs/HD-DVDs
Duration : 41 min 18 s
Bit rate : 33.3 kb/s
Count of elements : 978
Stream size : 9.85 MiB (0%)
Language : Dutch
Default : No
Forced : No

Text #6
ID : 9
Format : PGS
Codec ID : S_HDMV/PGS
Codec ID/Info : Picture based subtitle format used on BDs/HD-DVDs
Duration : 41 min 18 s
Bit rate : 36.0 kb/s
Count of elements : 982
Stream size : 10.6 MiB (0%)
Language : Finnish
Default : No
Forced : No

Text #7
ID : 10
Format : PGS
Codec ID : S_HDMV/PGS
Codec ID/Info : Picture based subtitle format used on BDs/HD-DVDs
Duration : 41 min 18 s
Bit rate : 32.4 kb/s
Count of elements : 982
Stream size : 9.56 MiB (0%)
Language : Hindi
Default : No
Forced : No

Text #8
ID : 11
Format : PGS
Codec ID : S_HDMV/PGS
Codec ID/Info : Picture based subtitle format used on BDs/HD-DVDs
Duration : 41 min 18 s
Bit rate : 41.2 kb/s
Count of elements : 982
Stream size : 12.2 MiB (0%)
Language : Italian
Default : No
Forced : No

Text #9
ID : 12
Format : PGS
Codec ID : S_HDMV/PGS
Codec ID/Info : Picture based subtitle format used on BDs/HD-DVDs
Duration : 41 min 18 s
Bit rate : 37.2 kb/s
Count of elements : 982
Stream size : 11.0 MiB (0%)
Language : Norwegian
Default : No
Forced : No

Text #10
ID : 13
Format : PGS
Codec ID : S_HDMV/PGS
Codec ID/Info : Picture based subtitle format used on BDs/HD-DVDs
Duration : 41 min 18 s
Bit rate : 41.0 kb/s
Count of elements : 984
Stream size : 12.1 MiB (0%)
Language : Portuguese
Default : No
Forced : No

Text #11
ID : 14
Format : PGS
Codec ID : S_HDMV/PGS
Codec ID/Info : Picture based subtitle format used on BDs/HD-DVDs
Duration : 41 min 18 s
Bit rate : 39.4 kb/s
Count of elements : 984
Stream size : 11.6 MiB (0%)
Language : Spanish
Default : No
Forced : No

Text #12
ID : 15
Format : PGS
Codec ID : S_HDMV/PGS
Codec ID/Info : Picture based subtitle format used on BDs/HD-DVDs
Duration : 41 min 58 s
Bit rate : 36.0 kb/s
Count of elements : 956
Stream size : 10.8 MiB (0%)
Language : Swedish
Default : No
Forced : No

Text #13
ID : 16
Format : PGS
Codec ID : S_HDMV/PGS
Codec ID/Info : Picture based subtitle format used on BDs/HD-DVDs
Duration : 41 min 52 s
Bit rate : 63.6 kb/s
Count of elements : 1420
Stream size : 19.1 MiB (0%)
Title : Commentary with Executive Producers Jon Bokenkamp and John Eisendrath
Language : English
Default : No
Forced : No

Text #14
ID : 17
Format : PGS
Codec ID : S_HDMV/PGS
Codec ID/Info : Picture based subtitle format used on BDs/HD-DVDs
Duration : 41 min 52 s
Bit rate : 53.3 kb/s
Count of elements : 1392
Stream size : 16.0 MiB (0%)
Title : Commentary with Executive Producers Jon Bokenkamp and John Eisendrath
Language : Dutch
Default : No
Forced : No

Text #15
ID : 18
Format : PGS
Codec ID : S_HDMV/PGS
Codec ID/Info : Picture based subtitle format used on BDs/HD-DVDs
Duration : 41 min 52 s
Bit rate : 60.5 kb/s
Count of elements : 1420
Stream size : 18.1 MiB (0%)
Title : Commentary with Executive Producers Jon Bokenkamp and John Eisendrath
Language : Italian
Default : No
Forced : No

Text #16
ID : 19
Format : PGS
Codec ID : S_HDMV/PGS
Codec ID/Info : Picture based subtitle format used on BDs/HD-DVDs
Duration : 41 min 52 s
Bit rate : 54.6 kb/s
Count of elements : 1420
Stream size : 16.3 MiB (0%)
Title : Commentary with Executive Producers Jon Bokenkamp and John Eisendrath
Language : Portuguese
Default : No
Forced : No

Text #17
ID : 20
Format : PGS
Codec ID : S_HDMV/PGS
Codec ID/Info : Picture based subtitle format used on BDs/HD-DVDs
Duration : 41 min 52 s
Bit rate : 60.9 kb/s
Count of elements : 1420
Stream size : 18.2 MiB (0%)
Title : Commentary with Executive Producers Jon Bokenkamp and John Eisendrath
Language : Spanish
Default : No
Forced : No

Menu
00:00:00.000 : en:Chapter 1
00:03:05.268 : en:Chapter 2
00:06:10.161 : en:Chapter 3
00:12:06.684 : en:Chapter 4
00:18:31.819 : en:Chapter 5
00:27:29.481 : en:Chapter 6
00:32:52.470 : en:Chapter 7
00:41:25.149 : en:Chapter 8





The Blacklist S02E19


The Blacklist S02E19


The Blacklist S02E19


The Blacklist S02E19


The Blacklist S02E19

All episodes