Index
# A B C D E F G H I J K L M N O P Q R S T U V W Y Z
Tags
Language
Tags

Featured TV Shows


The Blacklist S02E22

Posted By: Tavaz
1080p (FullHD) / BDRip IMDb
The Blacklist S02E22

The Blacklist S02E22
BluRay Remux | MKV | 1920x1080 | English | H264 @ 21744 kbps | DTS | 42 min 28 s | 7.40 GiB
Subtitles: العربية, Suomi, Español, Svenska, Italiano, Nederlands, Dansk, English, हिन्दी, Português
Genre: Drama, Crime, Mystery


Raymond "Red" Reddington, one of the FBI's most wanted fugitives, surrenders in person at FBI Headquarters in Washington, D.C. He claims that he and the FBI have the same interests: bringing down dangerous criminals and terrorists. In the last two decades, he's made a list of criminals and terrorists that matter the most but the FBI cannot find because it does not know they exist. Reddington calls this "The Blacklist". Reddington will co-operate, but insists that he will speak only to Elizabeth Keen, a rookie FBI profiler.

ghxbzHp5rVZAuoDN.mkv (7.4 GB)



General
Unique ID : 44455956196802243525925576812069485833 (0x2171E7DD90E57242D7EFBBD683B17D09)
Complete name : ./ghxbzHp5rVZAuoDN.mkv
Format : Matroska
Format version : Version 4 / Version 2
File size : 7.40 GiB
Duration : 42 min 28 s
Overall bit rate mode : Variable
Overall bit rate : 24.9 Mb/s
Encoded date : UTC 2017-04-01 19:03:53
Writing application : mkvmerge v10.0.0 ('To Drown In You') 64bit
Writing library : libebml v1.3.4 + libmatroska v1.4.5

Video
ID : 1
Format : AVC
Format/Info : Advanced Video Codec
Format profile : High@L4.1
Format settings : CABAC / 2 Ref Frames
Format settings, CABAC : Yes
Format settings, RefFrames : 2 frames
Codec ID : V_MPEG4/ISO/AVC
Duration : 42 min 28 s
Bit rate mode : Variable
Bit rate : 21.7 Mb/s
Width : 1 920 pixels
Height : 1 080 pixels
Display aspect ratio : 16:9
Frame rate mode : Constant
Frame rate : 23.976 (24000/1001) FPS
Color space : YUV
Chroma subsampling : 4:2:0
Bit depth : 8 bits
Scan type : Progressive
Bits/(Pixel*Frame) : 0.437
Stream size : 6.45 GiB (87%)
Title : MPEG-4 AVC Video / 21744 kbps / 1080p / 23.976 fps / 16:9 / High Profile 4.1
Default : Yes
Forced : No

Audio #1
ID : 2
Format : DTS
Format/Info : Digital Theater Systems
Format profile : MA / Core
Mode : 16
Format settings, Endianness : Big
Codec ID : A_DTS
Duration : 42 min 28 s
Bit rate mode : Variable / Constant
Bit rate : 2 240 kb/s / 1 509 kb/s
Channel(s) : 6 channels
Channel positions : Front: L C R, Side: L R, LFE
Sampling rate : 48.0 kHz
Frame rate : 93.750 FPS (512 SPF)
Bit depth : 16 bits
Compression mode : Lossless / Lossy
Stream size : 681 MiB (9%)
Title : DTS-HD Master Audio / 5.1 / 48 kHz / 2240 kbps / 16-bit
Language : English
Default : Yes
Forced : No

Audio #2
ID : 3
Format : AC-3
Format/Info : Audio Coding 3
Mode : Dolby Digital
Format settings, Endianness : Big
Codec ID : A_AC3
Duration : 42 min 28 s
Bit rate mode : Constant
Bit rate : 192 kb/s
Channel(s) : 2 channels
Channel positions : Front: L R
Sampling rate : 48.0 kHz
Frame rate : 31.250 FPS (1536 SPF)
Bit depth : 16 bits
Compression mode : Lossy
Stream size : 58.3 MiB (1%)
Title : Commentary with Executive Producers Jon Bokenkamp and John Eisendrath (Dolby Digital Audio / 2.0 / 48 kHz / 192 kbps / Dolby Surround)
Language : English
Service kind : Complete Main
Default : No
Forced : No

Text #1
ID : 4
Format : PGS
Codec ID : S_HDMV/PGS
Codec ID/Info : Picture based subtitle format used on BDs/HD-DVDs
Duration : 2 s 80 ms
Bit rate : 116 kb/s
Count of elements : 2
Stream size : 29.5 KiB (0%)
Title : Forced
Language : English
Default : Yes
Forced : No

Text #2
ID : 5
Format : PGS
Codec ID : S_HDMV/PGS
Codec ID/Info : Picture based subtitle format used on BDs/HD-DVDs
Duration : 39 min 36 s
Bit rate : 46.1 kb/s
Count of elements : 1092
Stream size : 13.1 MiB (0%)
Language : English
Default : No
Forced : No

Text #3
ID : 6
Format : PGS
Codec ID : S_HDMV/PGS
Codec ID/Info : Picture based subtitle format used on BDs/HD-DVDs
Duration : 41 min 52 s
Bit rate : 47.8 kb/s
Count of elements : 1284
Stream size : 14.3 MiB (0%)
Title : SDH
Language : English
Default : No
Forced : No

Text #4
ID : 7
Format : PGS
Codec ID : S_HDMV/PGS
Codec ID/Info : Picture based subtitle format used on BDs/HD-DVDs
Duration : 41 min 46 s
Bit rate : 24.2 kb/s
Count of elements : 1110
Stream size : 7.24 MiB (0%)
Language : Arabic
Default : No
Forced : No

Text #5
ID : 8
Format : PGS
Codec ID : S_HDMV/PGS
Codec ID/Info : Picture based subtitle format used on BDs/HD-DVDs
Duration : 41 min 46 s
Bit rate : 38.9 kb/s
Count of elements : 1076
Stream size : 11.6 MiB (0%)
Language : Danish
Default : No
Forced : No

Text #6
ID : 9
Format : PGS
Codec ID : S_HDMV/PGS
Codec ID/Info : Picture based subtitle format used on BDs/HD-DVDs
Duration : 41 min 46 s
Bit rate : 40.7 kb/s
Count of elements : 1052
Stream size : 12.2 MiB (0%)
Language : Dutch
Default : No
Forced : No

Text #7
ID : 10
Format : PGS
Codec ID : S_HDMV/PGS
Codec ID/Info : Picture based subtitle format used on BDs/HD-DVDs
Duration : 41 min 46 s
Bit rate : 34.2 kb/s
Count of elements : 1100
Stream size : 10.2 MiB (0%)
Language : Finnish
Default : No
Forced : No

Text #8
ID : 11
Format : PGS
Codec ID : S_HDMV/PGS
Codec ID/Info : Picture based subtitle format used on BDs/HD-DVDs
Duration : 41 min 46 s
Bit rate : 34.4 kb/s
Count of elements : 1110
Stream size : 10.3 MiB (0%)
Language : Hindi
Default : No
Forced : No

Text #9
ID : 12
Format : PGS
Codec ID : S_HDMV/PGS
Codec ID/Info : Picture based subtitle format used on BDs/HD-DVDs
Duration : 41 min 46 s
Bit rate : 47.3 kb/s
Count of elements : 1100
Stream size : 14.1 MiB (0%)
Language : Italian
Default : No
Forced : No

Text #10
ID : 13
Format : PGS
Codec ID : S_HDMV/PGS
Codec ID/Info : Picture based subtitle format used on BDs/HD-DVDs
Duration : 41 min 46 s
Bit rate : 41.5 kb/s
Count of elements : 1098
Stream size : 12.4 MiB (0%)
Language : Norwegian
Default : No
Forced : No

Text #11
ID : 14
Format : PGS
Codec ID : S_HDMV/PGS
Codec ID/Info : Picture based subtitle format used on BDs/HD-DVDs
Duration : 41 min 46 s
Bit rate : 43.3 kb/s
Count of elements : 1108
Stream size : 13.0 MiB (0%)
Language : Portuguese
Default : No
Forced : No

Text #12
ID : 15
Format : PGS
Codec ID : S_HDMV/PGS
Codec ID/Info : Picture based subtitle format used on BDs/HD-DVDs
Duration : 41 min 46 s
Bit rate : 43.1 kb/s
Count of elements : 1106
Stream size : 12.9 MiB (0%)
Language : Spanish
Default : No
Forced : No

Text #13
ID : 16
Format : PGS
Codec ID : S_HDMV/PGS
Codec ID/Info : Picture based subtitle format used on BDs/HD-DVDs
Duration : 42 min 25 s
Bit rate : 40.7 kb/s
Count of elements : 1102
Stream size : 12.3 MiB (0%)
Language : Swedish
Default : No
Forced : No

Text #14
ID : 17
Format : PGS
Codec ID : S_HDMV/PGS
Codec ID/Info : Picture based subtitle format used on BDs/HD-DVDs
Duration : 42 min 19 s
Bit rate : 63.8 kb/s
Count of elements : 1448
Stream size : 19.3 MiB (0%)
Language : English
Default : No
Forced : No

Text #15
ID : 18
Format : PGS
Codec ID : S_HDMV/PGS
Codec ID/Info : Picture based subtitle format used on BDs/HD-DVDs
Duration : 42 min 19 s
Bit rate : 54.6 kb/s
Count of elements : 1408
Stream size : 16.5 MiB (0%)
Language : Dutch
Default : No
Forced : No

Text #16
ID : 19
Format : PGS
Codec ID : S_HDMV/PGS
Codec ID/Info : Picture based subtitle format used on BDs/HD-DVDs
Duration : 42 min 19 s
Bit rate : 58.3 kb/s
Count of elements : 1450
Stream size : 17.6 MiB (0%)
Language : Italian
Default : No
Forced : No

Text #17
ID : 20
Format : PGS
Codec ID : S_HDMV/PGS
Codec ID/Info : Picture based subtitle format used on BDs/HD-DVDs
Duration : 42 min 19 s
Bit rate : 54.9 kb/s
Count of elements : 1448
Stream size : 16.6 MiB (0%)
Language : Portuguese
Default : No
Forced : No

Text #18
ID : 21
Format : PGS
Codec ID : S_HDMV/PGS
Codec ID/Info : Picture based subtitle format used on BDs/HD-DVDs
Duration : 42 min 19 s
Bit rate : 61.2 kb/s
Count of elements : 1448
Stream size : 18.5 MiB (0%)
Language : Spanish
Default : No
Forced : No

Menu
00:00:00.000 : en:Chapter 1
00:04:14.212 : en:Chapter 2
00:05:19.611 : en:Chapter 3
00:11:41.075 : en:Chapter 4
00:19:52.108 : en:Chapter 5
00:26:23.207 : en:Chapter 6
00:35:11.026 : en:Chapter 7
00:41:51.718 : en:Chapter 8





The Blacklist S02E22


The Blacklist S02E22


The Blacklist S02E22


The Blacklist S02E22


The Blacklist S02E22

All episodes