Index
# A B C D E F G H I J K L M N O P Q R S T U V W Y Z
Tags
Language
Tags

Featured TV Shows


The Blacklist S03E01

Posted By: Tavaz
SD / BDRip IMDb
The Blacklist S03E01

The Blacklist S03E01
BDRip | MKV | 1920x1080 | H264 @ 3584 kbps | E-AC-3 @ 640 kbps | 28 min 36 s | 882 MiB
Genre: Crime, Drama, Mystery

Raymond "Red" Reddington, one of the FBI's most wanted fugitives, surrenders in person at FBI Headquarters in Washington, D.C. He claims that he and the FBI have the same interests: bringing down dangerous criminals and terrorists. In the last two decades, he's made a list of criminals and terrorists that matter the most but the FBI cannot find because it does not know they exist. Reddington calls this "The Blacklist". Reddington will co-operate, but insists that he will speak only to Elizabeth Keen, a rookie FBI profiler.

ba488ca342da42f79f0a2ae119db406c.mkv (882.1 MB)



General
Unique ID : 164174397657844291646528964379028089340 (0x7B82D6BF352BFE40B7BC4AA0C105E9FC)
Complete name : ./ba488ca342da42f79f0a2ae119db406c.mkv
Format : Matroska
Format version : Version 4 / Version 2
File size : 882 MiB
Duration : 28 min 36 s
Overall bit rate mode : Variable
Overall bit rate : 4 311 kb/s
Writing application : Lavf57.82.100
Writing library : Lavf57.82.100
ErrorDetectionType : Per level 1

Video
ID : 1
Format : AVC
Format/Info : Advanced Video Codec
Format profile : Main@L4
Format settings : CABAC / 3 Ref Frames
Format settings, CABAC : Yes
Format settings, RefFrames : 3 frames
Codec ID : V_MPEG4/ISO/AVC
Duration : 28 min 36 s
Bit rate mode : Variable
Bit rate : 3 585 kb/s
Nominal bit rate : 3 830 kb/s
Maximum bit rate : 5 745 kb/s
Width : 1 920 pixels
Height : 1 080 pixels
Display aspect ratio : 16:9
Frame rate mode : Constant
Frame rate : 23.976 (24000/1001) FPS
Color space : YUV
Chroma subsampling : 4:2:0
Bit depth : 8 bits
Scan type : Progressive
Bits/(Pixel*Frame) : 0.072
Stream size : 733 MiB (83%)
Writing library : x264 core 148 r2715 7e75228
Encoding settings : cabac=1 / ref=3 / deblock=1:0:0 / analyse=0x1:0x111 / me=umh / subme=10 / psy=1 / psy_rd=1.00:0.00 / mixed_ref=1 / me_range=24 / chroma_me=1 / trellis=2 / 8x8dct=0 / cqm=0 / deadzone=21,11 / fast_pskip=1 / chroma_qp_offset=-2 / threads=6 / lookahead_threads=1 / sliced_threads=0 / nr=0 / decimate=1 / interlaced=0 / bluray_compat=0 / stitchable=1 / constrained_intra=0 / bframes=2 / b_pyramid=0 / b_adapt=2 / b_bias=0 / direct=3 / weightb=1 / open_gop=0 / weightp=2 / keyint=48 / keyint_min=25 / scenecut=0 / intra_refresh=0 / rc_lookahead=48 / rc=2pass / mbtree=1 / bitrate=3830 / ratetol=1.0 / qcomp=0.50 / qpmin=6 / qpmax=51 / qpstep=4 / cplxblur=20.0 / qblur=0.5 / vbv_maxrate=5745 / vbv_bufsize=7660 / nal_hrd=vbr / filler=0 / ip_ratio=1.40 / aq=1:1.00
Default : Yes
Forced : No

Audio
ID : 2
Format : E-AC-3
Format/Info : Enhanced Audio Coding 3
Format settings, Endianness : Big
Codec ID : A_EAC3
Duration : 28 min 36 s
Bit rate mode : Constant
Bit rate : 640 kb/s
Channel(s) : 6 channels
Channel positions : Front: L C R, Side: L R, LFE
Sampling rate : 48.0 kHz
Frame rate : 187.500 FPS (256 SPF)
Bit depth : 32 bits
Compression mode : Lossy
Stream size : 131 MiB (15%)
Service kind : Complete Main
Default : Yes
Forced : No

Text
ID : 3
Format : ASS
Codec ID : S_TEXT/ASS
Codec ID/Info : Advanced Sub Station Alpha
Duration : 28 min 2 s
Compression mode : Lossless
Writing library : Lavc57.106.101 ssa
Default : No
Forced : No





The Blacklist S03E01


The Blacklist S03E01


The Blacklist S03E01


The Blacklist S03E01


The Blacklist S03E01

All episodes