Index
# A B C D E F G H I J K L M N O P Q R S T U V W Y Z
Tags
Language
Tags

Featured TV Shows


The Blacklist S03E09

Posted By: Tavaz
1080p (FullHD) / BDRip IMDb
The Blacklist S03E09

The Blacklist S03E09
BluRay Remux | MKV | 1920x1080 | English | H264 @ 21718 kbps | DTS | 42 min 12 s | 7.15 GiB
Subtitles: Français, English
Genre: Drama, Crime, Mystery


Raymond "Red" Reddington, one of the FBI's most wanted fugitives, surrenders in person at FBI Headquarters in Washington, D.C. He claims that he and the FBI have the same interests: bringing down dangerous criminals and terrorists. In the last two decades, he's made a list of criminals and terrorists that matter the most but the FBI cannot find because it does not know they exist. Reddington calls this "The Blacklist". Reddington will co-operate, but insists that he will speak only to Elizabeth Keen, a rookie FBI profiler.

hnvDKODsUmaLBJDK.mkv (7.2 GB)



General
Unique ID : 56533339783613607980072864304378449490 (0x2A87ECD98CC5F409BF4EA16B68788E52)
Complete name : ./hnvDKODsUmaLBJDK.mkv
Format : Matroska
Format version : Version 4 / Version 2
File size : 7.15 GiB
Duration : 42 min 12 s
Overall bit rate mode : Variable
Overall bit rate : 24.3 Mb/s
Encoded date : UTC 2018-05-17 03:39:03
Writing application : mkvmerge v23.0.0 ('The Bride Said No') 64-bit
Writing library : libebml v1.3.6 + libmatroska v1.4.9

Video
ID : 1
Format : AVC
Format/Info : Advanced Video Codec
Format profile : High@L4.1
Format settings : CABAC / 2 Ref Frames
Format settings, CABAC : Yes
Format settings, RefFrames : 2 frames
Format settings, GOP : M=1, N=10
Codec ID : V_MPEG4/ISO/AVC
Duration : 42 min 12 s
Bit rate mode : Variable
Bit rate : 21.7 Mb/s
Width : 1 920 pixels
Height : 1 080 pixels
Display aspect ratio : 16:9
Frame rate mode : Constant
Frame rate : 23.976 (24000/1001) FPS
Color space : YUV
Chroma subsampling : 4:2:0
Bit depth : 8 bits
Scan type : Progressive
Bits/(Pixel*Frame) : 0.437
Stream size : 6.40 GiB (89%)
Title : MPEG-4 AVC Video / 21719 kbps / 1080p / 23.976 fps / 16:9 / High Profile 4.1
Language : English
Default : Yes
Forced : No

Audio #1
ID : 2
Format : DTS
Format/Info : Digital Theater Systems
Format profile : MA / Core
Mode : 16
Format settings, Endianness : Big
Codec ID : A_DTS
Duration : 42 min 12 s
Bit rate mode : Variable / Constant
Bit rate : 2 297 kb/s / 1 509 kb/s
Channel(s) : 6 channels
Channel positions : Front: L C R, Side: L R, LFE
Sampling rate : 48.0 kHz
Frame rate : 93.750 FPS (512 SPF)
Bit depth : 16 bits
Compression mode : Lossless / Lossy
Stream size : 693 MiB (9%)
Title : DTS-HD Master Audio / 5.1 / 48 kHz / 2297 kbps / 16-bit
Language : English
Default : Yes
Forced : No

Audio #2
ID : 3
Format : AC-3
Format/Info : Audio Coding 3
Format settings, Endianness : Big
Codec ID : A_AC3
Duration : 42 min 12 s
Bit rate mode : Constant
Bit rate : 192 kb/s
Channel(s) : 2 channels
Channel positions : Front: L R
Sampling rate : 48.0 kHz
Frame rate : 31.250 FPS (1536 SPF)
Bit depth : 16 bits
Compression mode : Lossy
Stream size : 58.0 MiB (1%)
Title : Commentary with Jon Bokenkamp, Brandon Margolis and Kat Goodson / Dolby Digital Audio / 2.0 / 48 kHz / 192 kbps
Language : English
Service kind : Complete Main
Default : No
Forced : No

Text #1
ID : 4
Format : PGS
Muxing mode : zlib
Codec ID : S_HDMV/PGS
Codec ID/Info : Picture based subtitle format used on BDs/HD-DVDs
Duration : 41 min 15 s
Bit rate : 46.2 kb/s
Count of elements : 1136
Stream size : 13.6 MiB (0%)
Language : English
Default : No
Forced : No

Text #2
ID : 5
Format : PGS
Muxing mode : zlib
Codec ID : S_HDMV/PGS
Codec ID/Info : Picture based subtitle format used on BDs/HD-DVDs
Duration : 41 min 34 s
Bit rate : 52.6 kb/s
Count of elements : 1388
Stream size : 15.6 MiB (0%)
Title : SDH
Language : English
Default : No
Forced : No

Text #3
ID : 6
Format : PGS
Muxing mode : zlib
Codec ID : S_HDMV/PGS
Codec ID/Info : Picture based subtitle format used on BDs/HD-DVDs
Duration : 41 min 54 s
Bit rate : 35.5 kb/s
Count of elements : 1130
Stream size : 10.6 MiB (0%)
Language : French
Default : No
Forced : No

Menu
00:00:00.000 : en:Chapter 1
00:01:51.236 : en:Chapter 2
00:05:44.344 : en:Chapter 3
00:13:34.981 : en:Chapter 4
00:21:46.514 : en:Chapter 5
00:28:17.487 : en:Chapter 6
00:35:02.392 : en:Chapter 7
00:41:35.076 : en:Chapter 8





The Blacklist S03E09


The Blacklist S03E09


The Blacklist S03E09


The Blacklist S03E09


The Blacklist S03E09

All episodes