Index
# A B C D E F G H I J K L M N O P Q R S T U V W Y Z
Tags
Language
Tags

Featured TV Shows


The Blacklist S04E01

Posted By: Tavaz
1080p (FullHD) / BDRip IMDb
The Blacklist S04E01

The Blacklist S04E01
BluRay Remux | MKV | 1920x1080 | English | H264 @ 21689 kbps | DTS | 43 min 4 s | 7.24 GiB
Subtitles: Français, English
Genre: Crime, Drama, Mystery


Raymond "Red" Reddington, one of the FBI's most wanted fugitives, surrenders in person at FBI Headquarters in Washington, D.C. He claims that he and the FBI have the same interests: bringing down dangerous criminals and terrorists. In the last two decades, he's made a list of criminals and terrorists that matter the most but the FBI cannot find because it does not know they exist. Reddington calls this "The Blacklist". Reddington will co-operate, but insists that he will speak only to Elizabeth Keen, a rookie FBI profiler.

The.Blacklist.S04E01.Esteban.1080p.BluRay.REMUX.AVC.DTS-HD.MA.5.1-EPSiLON.mkv (7.2 GB)



General
Unique ID : 84238367761986921009669361237624864512 (0x3F5FB830C0C38F70D0450D581D2FBF00)
Complete name : ./The.Blacklist.S04E01.Esteban.1080p.BluRay.REMUX.AVC.DTS-HD.MA.5.1-EPSiLON.mkv
Format : Matroska
Format version : Version 4 / Version 2
File size : 7.24 GiB
Duration : 43 min 4 s
Overall bit rate mode : Variable
Overall bit rate : 24.1 Mb/s
Encoded date : UTC 2017-08-14 13:52:11
Writing application : mkvmerge v14.0.0 ('Flow') 64bit
Writing library : libebml v1.3.4 + libmatroska v1.4.5

Video
ID : 1
Format : AVC
Format/Info : Advanced Video Codec
Format profile : High@L4.1
Format settings : CABAC / 2 Ref Frames
Format settings, CABAC : Yes
Format settings, RefFrames : 2 frames
Codec ID : V_MPEG4/ISO/AVC
Duration : 43 min 4 s
Bit rate mode : Variable
Bit rate : 21.7 Mb/s
Width : 1 920 pixels
Height : 1 080 pixels
Display aspect ratio : 16:9
Frame rate mode : Constant
Frame rate : 23.976 (24000/1001) FPS
Color space : YUV
Chroma subsampling : 4:2:0
Bit depth : 8 bits
Scan type : Progressive
Bits/(Pixel*Frame) : 0.436
Stream size : 6.53 GiB (90%)
Title : MPEG-4 AVC Video / 21690 kbps / 1080p / 23.976 fps / 16:9 / High Profile 4.1
Language : English
Default : Yes
Forced : No

Audio
ID : 2
Format : DTS
Format/Info : Digital Theater Systems
Format profile : MA / Core
Mode : 16
Format settings, Endianness : Big
Codec ID : A_DTS
Duration : 43 min 4 s
Bit rate mode : Variable / Constant
Bit rate : 2 276 kb/s / 1 509 kb/s
Channel(s) : 6 channels
Channel positions : Front: L C R, Side: L R, LFE
Sampling rate : 48.0 kHz
Frame rate : 93.750 FPS (512 SPF)
Bit depth : 16 bits
Compression mode : Lossless / Lossy
Stream size : 701 MiB (9%)
Title : DTS-HD Master Audio / 5.1 / 48 kHz / 2276 kbps / 16-bit
Language : English
Default : Yes
Forced : No

Text #1
ID : 3
Format : PGS
Codec ID : S_HDMV/PGS
Codec ID/Info : Picture based subtitle format used on BDs/HD-DVDs
Duration : 37 min 11 s
Bit rate : 2 292 b/s
Count of elements : 78
Stream size : 625 KiB (0%)
Title : Forced
Language : English
Default : Yes
Forced : No

Text #2
ID : 4
Format : PGS
Codec ID : S_HDMV/PGS
Codec ID/Info : Picture based subtitle format used on BDs/HD-DVDs
Duration : 43 min 1 s
Bit rate : 40.8 kb/s
Count of elements : 1330
Stream size : 12.6 MiB (0%)
Title : SDH
Language : English
Default : No
Forced : No

Text #3
ID : 5
Format : PGS
Codec ID : S_HDMV/PGS
Codec ID/Info : Picture based subtitle format used on BDs/HD-DVDs
Duration : 42 min 34 s
Bit rate : 36.4 kb/s
Count of elements : 1156
Stream size : 11.1 MiB (0%)
Language : English
Default : No
Forced : No

Text #4
ID : 6
Format : PGS
Codec ID : S_HDMV/PGS
Codec ID/Info : Picture based subtitle format used on BDs/HD-DVDs
Duration : 42 min 34 s
Bit rate : 30.6 kb/s
Count of elements : 1106
Stream size : 9.31 MiB (0%)
Language : French
Default : No
Forced : No

Menu
00:00:00.000 : en:Chapter 1
00:03:28.291 : en:Chapter 2
00:07:43.713 : en:Chapter 3
00:15:14.705 : en:Chapter 4
00:23:45.299 : en:Chapter 5
00:29:39.236 : en:Chapter 6
00:37:48.558 : en:Chapter 7
00:42:27.295 : en:Chapter 8





The Blacklist S04E01


The Blacklist S04E01


The Blacklist S04E01


The Blacklist S04E01


The Blacklist S04E01

All episodes