Index
# A B C D E F G H I J K L M N O P Q R S T U V W Y Z
Tags
Language
Tags

Featured TV Shows


The Blacklist S04E05

Posted By: Tavaz
1080p (FullHD) / BDRip IMDb
The Blacklist S04E05

The Blacklist S04E05
BluRay Remux | MKV | 1920x1080 | English | H264 @ 21740 kbps | DTS | 43 min 6 s | 7.34 GiB
Subtitles: Français, English
Genre: Drama, Crime, Mystery


Raymond "Red" Reddington, one of the FBI's most wanted fugitives, surrenders in person at FBI Headquarters in Washington, D.C. He claims that he and the FBI have the same interests: bringing down dangerous criminals and terrorists. In the last two decades, he's made a list of criminals and terrorists that matter the most but the FBI cannot find because it does not know they exist. Reddington calls this "The Blacklist". Reddington will co-operate, but insists that he will speak only to Elizabeth Keen, a rookie FBI profiler.

rODLavo7jFlienma.mkv (7.3 GB)



General
Unique ID : 186852312440890698555910049341574215481 (0x8C9272455B2DAE872CF8694154A7F739)
Complete name : ./rODLavo7jFlienma.mkv
Format : Matroska
Format version : Version 4 / Version 2
File size : 7.34 GiB
Duration : 43 min 6 s
Overall bit rate mode : Variable
Overall bit rate : 24.4 Mb/s
Encoded date : UTC 2017-08-14 13:10:18
Writing application : mkvmerge v14.0.0 ('Flow') 64bit
Writing library : libebml v1.3.4 + libmatroska v1.4.5

Video
ID : 1
Format : AVC
Format/Info : Advanced Video Codec
Format profile : High@L4.1
Format settings : CABAC / 2 Ref Frames
Format settings, CABAC : Yes
Format settings, RefFrames : 2 frames
Codec ID : V_MPEG4/ISO/AVC
Duration : 43 min 6 s
Bit rate mode : Variable
Bit rate : 21.7 Mb/s
Width : 1 920 pixels
Height : 1 080 pixels
Display aspect ratio : 16:9
Frame rate mode : Constant
Frame rate : 23.976 (24000/1001) FPS
Color space : YUV
Chroma subsampling : 4:2:0
Bit depth : 8 bits
Scan type : Progressive
Bits/(Pixel*Frame) : 0.437
Stream size : 6.55 GiB (89%)
Title : MPEG-4 AVC Video / 21740 kbps / 1080p / 23.976 fps / 16:9 / High Profile 4.1
Language : English
Default : Yes
Forced : No

Audio #1
ID : 2
Format : DTS
Format/Info : Digital Theater Systems
Format profile : MA / Core
Mode : 16
Format settings, Endianness : Big
Codec ID : A_DTS
Duration : 43 min 6 s
Bit rate mode : Variable / Constant
Bit rate : 2 235 kb/s / 1 509 kb/s
Channel(s) : 6 channels
Channel positions : Front: L C R, Side: L R, LFE
Sampling rate : 48.0 kHz
Frame rate : 93.750 FPS (512 SPF)
Bit depth : 16 bits
Compression mode : Lossless / Lossy
Stream size : 689 MiB (9%)
Title : DTS-HD Master Audio / 5.1 / 48 kHz / 2235 kbps / 16-bit
Language : English
Default : Yes
Forced : No

Audio #2
ID : 3
Format : AC-3
Format/Info : Audio Coding 3
Mode : Dolby Digital
Format settings, Endianness : Big
Codec ID : A_AC3
Duration : 43 min 6 s
Bit rate mode : Constant
Bit rate : 192 kb/s
Channel(s) : 2 channels
Channel positions : Front: L R
Sampling rate : 48.0 kHz
Frame rate : 31.250 FPS (1536 SPF)
Bit depth : 16 bits
Compression mode : Lossy
Stream size : 59.2 MiB (1%)
Title : Commentary by Cast, Crew or Special Guest
Language : English
Service kind : Complete Main
Default : No
Forced : No

Text #1
ID : 4
Format : PGS
Codec ID : S_HDMV/PGS
Codec ID/Info : Picture based subtitle format used on BDs/HD-DVDs
Duration : 43 min 3 s
Bit rate : 49.9 kb/s
Count of elements : 1534
Stream size : 15.4 MiB (0%)
Title : SDH
Language : English
Default : No
Forced : No

Text #2
ID : 5
Format : PGS
Codec ID : S_HDMV/PGS
Codec ID/Info : Picture based subtitle format used on BDs/HD-DVDs
Duration : 42 min 52 s
Bit rate : 46.3 kb/s
Count of elements : 1412
Stream size : 14.2 MiB (0%)
Language : English
Default : No
Forced : No

Text #3
ID : 6
Format : PGS
Codec ID : S_HDMV/PGS
Codec ID/Info : Picture based subtitle format used on BDs/HD-DVDs
Duration : 42 min 52 s
Bit rate : 34.0 kb/s
Count of elements : 1410
Stream size : 10.4 MiB (0%)
Language : French
Default : No
Forced : No

Text #4
ID : 7
Format : PGS
Codec ID : S_HDMV/PGS
Codec ID/Info : Picture based subtitle format used on BDs/HD-DVDs
Duration : 42 min 54 s
Bit rate : 79.8 kb/s
Count of elements : 1733
Stream size : 24.5 MiB (0%)
Title : Commentary by Cast, Crew or Special Guest
Language : English
Default : No
Forced : No

Menu
00:00:00.000 : en:Chapter 1
00:03:04.976 : en:Chapter 2
00:10:50.900 : en:Chapter 3
00:19:02.475 : en:Chapter 4
00:26:11.028 : en:Chapter 5
00:31:23.632 : en:Chapter 6
00:36:31.564 : en:Chapter 7
00:42:29.255 : en:Chapter 8





The Blacklist S04E05


The Blacklist S04E05


The Blacklist S04E05


The Blacklist S04E05


The Blacklist S04E05

All episodes