Index
# A B C D E F G H I J K L M N O P Q R S T U V W Y Z
Tags
Language
Tags

Featured TV Shows


Blacklist S04E07

Posted By: Tavaz
SD / HDTV IMDb
Blacklist S04E07

Blacklist S04E07
HDTV | MKV | 1920x1080 | English | H264 @ 5110 kbps | E-AC-3 @ 640 kbps | 30 min 27 s | 1.18 GiB
Subtitles: Swedish, Norwegian Bokmal, Turkish, Romanian, Dutch, Korean, Danish, Indonesian, French, Russian, Thai, Finnish, Spanish, Greek, English, Italian, Portuguese, Chinese, German, Japanese, Hebrew, Polish, Arabic
Genre: Crime, Drame, Mystère


Raymond « Red » Reddington, l’un des fugitifs les plus recherchés par le FBI, se rend en personne au quartier général du FBI à Washington. Il affirme avoir les mêmes intérêts que le FBI : faire tomber des criminels dangereux et des terroristes. Reddington coopérera, mais insiste pour ne parler qu’à Elizabeth Keen, une profileuse inexpérimentée du FBI. Keen s’interroge sur l’intérêt soudain que Reddington lui porte, bien qu’il soutienne que Keen est très spéciale. Après que le FBI a fait tomber un terroriste sur lequel il a fourni des informations, Reddington révèle que ce terroriste n’est que le premier de beaucoup d’autres à venir : durant les deux dernières décennies, il a fait une liste des criminels et terroristes qu'il croit introuvable par le FBI parce que ce dernier ignorait leur existence et que ce sont les plus importants. Reddington l’appelle « La Liste noire » (« The Blacklist »).

b708ac0fc90045b6a16a97024434f2c8.mkv (1.2 GB)



General
Unique ID : 275755861663081167896485122220692887553 (0xCF74A5AA6CB370F754F5CF69066C5801)
Complete name : ./b708ac0fc90045b6a16a97024434f2c8.mkv
Format : Matroska
Format version : Version 4 / Version 2
File size : 1.18 GiB
Duration : 30 min 27 s
Overall bit rate mode : Variable
Overall bit rate : 5 569 kb/s
Encoded date : UTC 2019-04-15 17:49:57
Writing application : mkvmerge v33.0.0 ('A Little Bit of Madness') 64-bit
Writing library : libebml v1.3.7 + libmatroska v1.5.0

Video
ID : 1
Format : AVC
Format/Info : Advanced Video Codec
Format profile : Main@L4
Format settings : CABAC / 3 Ref Frames
Format settings, CABAC : Yes
Format settings, RefFrames : 3 frames
Codec ID : V_MPEG4/ISO/AVC
Duration : 30 min 26 s
Bit rate mode : Variable
Bit rate : 5 110 kb/s
Maximum bit rate : 7 665 kb/s
Width : 1 920 pixels
Height : 1 080 pixels
Display aspect ratio : 16:9
Frame rate mode : Constant
Frame rate : 23.976 (24000/1001) FPS
Color space : YUV
Chroma subsampling : 4:2:0
Bit depth : 8 bits
Scan type : Progressive
Bits/(Pixel*Frame) : 0.103
Stream size : 1.05 GiB (88%)
Writing library : x264 core 148 r2715 7e75228
Encoding settings : cabac=1 / ref=3 / deblock=1:0:0 / analyse=0x1:0x111 / me=umh / subme=10 / psy=1 / psy_rd=1.00:0.00 / mixed_ref=1 / me_range=24 / chroma_me=1 / trellis=2 / 8x8dct=0 / cqm=0 / deadzone=21,11 / fast_pskip=1 / chroma_qp_offset=-2 / threads=8 / lookahead_threads=1 / sliced_threads=0 / nr=0 / decimate=1 / interlaced=0 / bluray_compat=0 / stitchable=1 / constrained_intra=0 / bframes=2 / b_pyramid=0 / b_adapt=2 / b_bias=0 / direct=3 / weightb=1 / open_gop=0 / weightp=2 / keyint=48 / keyint_min=25 / scenecut=0 / intra_refresh=0 / rc_lookahead=48 / rc=2pass / mbtree=1 / bitrate=5110 / ratetol=1.0 / qcomp=0.50 / qpmin=6 / qpmax=51 / qpstep=4 / cplxblur=20.0 / qblur=0.5 / vbv_maxrate=7665 / vbv_bufsize=10220 / nal_hrd=vbr / filler=0 / ip_ratio=1.40 / aq=1:1.00
Default : Yes
Forced : No

Audio
ID : 2
Format : E-AC-3
Format/Info : Enhanced Audio Coding 3
Format settings, Endianness : Big
Codec ID : A_EAC3
Duration : 30 min 27 s
Bit rate mode : Constant
Bit rate : 640 kb/s
Channel(s) : 6 channels
Channel positions : Front: L C R, Side: L R, LFE
Sampling rate : 48.0 kHz
Frame rate : 187.500 FPS (256 SPF)
Compression mode : Lossy
Stream size : 139 MiB (11%)
Title : English
Language : English
Service kind : Complete Main
Default : Yes
Forced : No

Text #1
ID : 3
Format : UTF-8
Codec ID : S_TEXT/UTF8
Codec ID/Info : UTF-8 Plain Text
Duration : 7 s 841 ms
Bit rate : 77 b/s
Count of elements : 2
Stream size : 76.0 Bytes (0%)
Title : Forced
Language : English
Default : Yes
Forced : Yes

Text #2
ID : 4
Format : UTF-8
Codec ID : S_TEXT/UTF8
Codec ID/Info : UTF-8 Plain Text
Duration : 28 min 8 s
Bit rate : 75 b/s
Count of elements : 473
Stream size : 15.6 KiB (0%)
Language : English
Default : No
Forced : No

Text #3
ID : 5
Format : UTF-8
Codec ID : S_TEXT/UTF8
Codec ID/Info : UTF-8 Plain Text
Duration : 28 min 17 s
Bit rate : 77 b/s
Count of elements : 506
Stream size : 16.1 KiB (0%)
Title : SDH
Language : English
Default : No
Forced : No

Text #4
ID : 6
Format : UTF-8
Codec ID : S_TEXT/UTF8
Codec ID/Info : UTF-8 Plain Text
Duration : 28 min 24 s
Bit rate : 111 b/s
Count of elements : 429
Stream size : 23.3 KiB (0%)
Language : Arabic
Default : No
Forced : No

Text #5
ID : 7
Format : UTF-8
Codec ID : S_TEXT/UTF8
Codec ID/Info : UTF-8 Plain Text
Duration : 28 min 21 s
Bit rate : 66 b/s
Count of elements : 402
Stream size : 13.9 KiB (0%)
Language : Danish
Default : No
Forced : No

Text #6
ID : 8
Format : UTF-8
Codec ID : S_TEXT/UTF8
Codec ID/Info : UTF-8 Plain Text
Duration : 28 min 18 s
Bit rate : 53 b/s
Count of elements : 370
Stream size : 11.1 KiB (0%)
Language : German
Default : No
Forced : No

Text #7
ID : 9
Format : UTF-8
Codec ID : S_TEXT/UTF8
Codec ID/Info : UTF-8 Plain Text
Duration : 28 min 24 s
Bit rate : 95 b/s
Count of elements : 397
Stream size : 19.8 KiB (0%)
Language : Greek
Default : No
Forced : No

Text #8
ID : 10
Format : UTF-8
Codec ID : S_TEXT/UTF8
Codec ID/Info : UTF-8 Plain Text
Duration : 28 min 18 s
Bit rate : 59 b/s
Count of elements : 423
Stream size : 12.3 KiB (0%)
Language : Spanish
Default : No
Forced : No

Text #9
ID : 11
Format : UTF-8
Codec ID : S_TEXT/UTF8
Codec ID/Info : UTF-8 Plain Text
Duration : 28 min 18 s
Bit rate : 50 b/s
Count of elements : 409
Stream size : 10.5 KiB (0%)
Title : European
Language : Spanish
Default : No
Forced : No

Text #10
ID : 12
Format : UTF-8
Codec ID : S_TEXT/UTF8
Codec ID/Info : UTF-8 Plain Text
Duration : 28 min 18 s
Bit rate : 53 b/s
Count of elements : 327
Stream size : 11.1 KiB (0%)
Language : Finnish
Default : No
Forced : No

Text #11
ID : 13
Format : UTF-8
Codec ID : S_TEXT/UTF8
Codec ID/Info : UTF-8 Plain Text
Duration : 28 min 21 s
Bit rate : 58 b/s
Count of elements : 423
Stream size : 12.3 KiB (0%)
Language : French
Default : No
Forced : No

Text #12
ID : 14
Format : UTF-8
Codec ID : S_TEXT/UTF8
Codec ID/Info : UTF-8 Plain Text
Duration : 28 min 21 s
Bit rate : 101 b/s
Count of elements : 418
Stream size : 21.1 KiB (0%)
Language : Hebrew
Default : No
Forced : No

Text #13
ID : 15
Format : UTF-8
Codec ID : S_TEXT/UTF8
Codec ID/Info : UTF-8 Plain Text
Duration : 28 min 21 s
Bit rate : 57 b/s
Count of elements : 429
Stream size : 11.9 KiB (0%)
Language : Indonesian
Default : No
Forced : No

Text #14
ID : 16
Format : UTF-8
Codec ID : S_TEXT/UTF8
Codec ID/Info : UTF-8 Plain Text
Duration : 28 min 21 s
Bit rate : 48 b/s
Count of elements : 410
Stream size : 10.1 KiB (0%)
Language : Italian
Default : No
Forced : No

Text #15
ID : 17
Format : UTF-8
Codec ID : S_TEXT/UTF8
Codec ID/Info : UTF-8 Plain Text
Duration : 28 min 21 s
Bit rate : 58 b/s
Count of elements : 448
Stream size : 12.1 KiB (0%)
Language : Japanese
Default : No
Forced : No

Text #16
ID : 18
Format : UTF-8
Codec ID : S_TEXT/UTF8
Codec ID/Info : UTF-8 Plain Text
Duration : 28 min 21 s
Bit rate : 72 b/s
Count of elements : 425
Stream size : 15.1 KiB (0%)
Language : Korean
Default : No
Forced : No

Text #17
ID : 19
Format : UTF-8
Codec ID : S_TEXT/UTF8
Codec ID/Info : UTF-8 Plain Text
Duration : 28 min 21 s
Bit rate : 56 b/s
Count of elements : 420
Stream size : 11.6 KiB (0%)
Language : Norwegian Bokmal
Default : No
Forced : No

Text #18
ID : 20
Format : UTF-8
Codec ID : S_TEXT/UTF8
Codec ID/Info : UTF-8 Plain Text
Duration : 28 min 21 s
Bit rate : 45 b/s
Count of elements : 421
Stream size : 9.48 KiB (0%)
Language : Dutch
Default : No
Forced : No

Text #19
ID : 21
Format : UTF-8
Codec ID : S_TEXT/UTF8
Codec ID/Info : UTF-8 Plain Text
Duration : 28 min 18 s
Bit rate : 47 b/s
Count of elements : 377
Stream size : 9.83 KiB (0%)
Language : Polish
Default : No
Forced : No

Text #20
ID : 22
Format : UTF-8
Codec ID : S_TEXT/UTF8
Codec ID/Info : UTF-8 Plain Text
Duration : 28 min 21 s
Bit rate : 59 b/s
Count of elements : 422
Stream size : 12.4 KiB (0%)
Language : Portuguese
Default : No
Forced : No

Text #21
ID : 23
Format : UTF-8
Codec ID : S_TEXT/UTF8
Codec ID/Info : UTF-8 Plain Text
Duration : 28 min 24 s
Bit rate : 53 b/s
Count of elements : 420
Stream size : 11.1 KiB (0%)
Title : Brazilian
Language : Portuguese
Default : No
Forced : No

Text #22
ID : 24
Format : UTF-8
Codec ID : S_TEXT/UTF8
Codec ID/Info : UTF-8 Plain Text
Duration : 28 min 21 s
Bit rate : 62 b/s
Count of elements : 421
Stream size : 13.0 KiB (0%)
Language : Romanian
Default : No
Forced : No

Text #23
ID : 25
Format : UTF-8
Codec ID : S_TEXT/UTF8
Codec ID/Info : UTF-8 Plain Text
Duration : 28 min 18 s
Bit rate : 90 b/s
Count of elements : 402
Stream size : 18.8 KiB (0%)
Language : Russian
Default : No
Forced : No

Text #24
ID : 26
Format : UTF-8
Codec ID : S_TEXT/UTF8
Codec ID/Info : UTF-8 Plain Text
Duration : 28 min 21 s
Bit rate : 61 b/s
Count of elements : 405
Stream size : 12.8 KiB (0%)
Language : Swedish
Default : No
Forced : No

Text #25
ID : 27
Format : UTF-8
Codec ID : S_TEXT/UTF8
Codec ID/Info : UTF-8 Plain Text
Duration : 28 min 21 s
Bit rate : 154 b/s
Count of elements : 428
Stream size : 32.2 KiB (0%)
Language : Thai
Default : No
Forced : No

Text #26
ID : 28
Format : UTF-8
Codec ID : S_TEXT/UTF8
Codec ID/Info : UTF-8 Plain Text
Duration : 28 min 21 s
Bit rate : 61 b/s
Count of elements : 415
Stream size : 12.7 KiB (0%)
Language : Turkish
Default : No
Forced : No

Text #27
ID : 29
Format : UTF-8
Codec ID : S_TEXT/UTF8
Codec ID/Info : UTF-8 Plain Text
Duration : 28 min 21 s
Bit rate : 66 b/s
Count of elements : 428
Stream size : 13.9 KiB (0%)
Title : Simplified
Language : Chinese
Default : No
Forced : No

Text #28
ID : 30
Format : UTF-8
Codec ID : S_TEXT/UTF8
Codec ID/Info : UTF-8 Plain Text
Duration : 28 min 21 s
Bit rate : 62 b/s
Count of elements : 425
Stream size : 13.0 KiB (0%)
Title : Traditional
Language : Chinese
Default : No
Forced : No





Blacklist S04E07


Blacklist S04E07


Blacklist S04E07


Blacklist S04E07


Blacklist S04E07

All episodes