Index
# A B C D E F G H I J K L M N O P Q R S T U V W Y Z
Tags
Language
Tags

Featured TV Shows


The Blacklist S04E10

Posted By: Tavaz
1080p (FullHD) / BDRip IMDb
The Blacklist S04E10

The Blacklist S04E10
BluRay Remux | MKV | 1920x1080 | English | H264 @ 21829 kbps | DTS | 43 min 4 s | 7.28 GiB
Subtitles: Français, English
Genre: Drama, Crime, Mystery


Raymond "Red" Reddington, one of the FBI's most wanted fugitives, surrenders in person at FBI Headquarters in Washington, D.C. He claims that he and the FBI have the same interests: bringing down dangerous criminals and terrorists. In the last two decades, he's made a list of criminals and terrorists that matter the most but the FBI cannot find because it does not know they exist. Reddington calls this "The Blacklist". Reddington will co-operate, but insists that he will speak only to Elizabeth Keen, a rookie FBI profiler.

lYuG7fZ2Wa2xw1dM.mkv (7.3 GB)



General
Unique ID : 177976648306836935862675805161980930814 (0x85E50E3E43B82702BE9E99C5AA57AAFE)
Complete name : ./lYuG7fZ2Wa2xw1dM.mkv
Format : Matroska
Format version : Version 4 / Version 2
File size : 7.28 GiB
Duration : 43 min 4 s
Overall bit rate mode : Variable
Overall bit rate : 24.2 Mb/s
Encoded date : UTC 2017-08-14 13:19:40
Writing application : mkvmerge v14.0.0 ('Flow') 64bit
Writing library : libebml v1.3.4 + libmatroska v1.4.5

Video
ID : 1
Format : AVC
Format/Info : Advanced Video Codec
Format profile : High@L4.1
Format settings : CABAC / 2 Ref Frames
Format settings, CABAC : Yes
Format settings, RefFrames : 2 frames
Codec ID : V_MPEG4/ISO/AVC
Duration : 43 min 4 s
Bit rate mode : Variable
Bit rate : 21.8 Mb/s
Width : 1 920 pixels
Height : 1 080 pixels
Display aspect ratio : 16:9
Frame rate mode : Constant
Frame rate : 23.976 (24000/1001) FPS
Color space : YUV
Chroma subsampling : 4:2:0
Bit depth : 8 bits
Scan type : Progressive
Bits/(Pixel*Frame) : 0.439
Stream size : 6.57 GiB (90%)
Title : MPEG-4 AVC Video / 21830 kbps / 1080p / 23.976 fps / 16:9 / High Profile 4.1
Language : English
Default : Yes
Forced : No

Audio
ID : 2
Format : DTS
Format/Info : Digital Theater Systems
Format profile : MA / Core
Mode : 16
Format settings, Endianness : Big
Codec ID : A_DTS
Duration : 43 min 4 s
Bit rate mode : Variable / Constant
Bit rate : 2 217 kb/s / 1 509 kb/s
Channel(s) : 6 channels
Channel positions : Front: L C R, Side: L R, LFE
Sampling rate : 48.0 kHz
Frame rate : 93.750 FPS (512 SPF)
Bit depth : 16 bits
Compression mode : Lossless / Lossy
Stream size : 683 MiB (9%)
Title : DTS-HD Master Audio / 5.1 / 48 kHz / 2217 kbps / 16-bit
Language : English
Default : Yes
Forced : No

Text #1
ID : 3
Format : PGS
Codec ID : S_HDMV/PGS
Codec ID/Info : Picture based subtitle format used on BDs/HD-DVDs
Duration : 43 min 0 s
Bit rate : 51.5 kb/s
Count of elements : 1508
Stream size : 15.8 MiB (0%)
Title : SDH
Language : English
Default : No
Forced : No

Text #2
ID : 4
Format : PGS
Codec ID : S_HDMV/PGS
Codec ID/Info : Picture based subtitle format used on BDs/HD-DVDs
Duration : 42 min 39 s
Bit rate : 47.1 kb/s
Count of elements : 1334
Stream size : 14.4 MiB (0%)
Language : English
Default : No
Forced : No

Text #3
ID : 5
Format : PGS
Codec ID : S_HDMV/PGS
Codec ID/Info : Picture based subtitle format used on BDs/HD-DVDs
Duration : 42 min 39 s
Bit rate : 36.0 kb/s
Count of elements : 1284
Stream size : 11.0 MiB (0%)
Language : French
Default : No
Forced : No

Menu
00:00:00.000 : en:Chapter 1
00:02:32.319 : en:Chapter 2
00:06:56.249 : en:Chapter 3
00:15:30.346 : en:Chapter 4
00:22:51.662 : en:Chapter 5
00:29:48.870 : en:Chapter 6
00:35:15.113 : en:Chapter 7
00:42:26.753 : en:Chapter 8





The Blacklist S04E10


The Blacklist S04E10


The Blacklist S04E10


The Blacklist S04E10


The Blacklist S04E10

All episodes