Index
# A B C D E F G H I J K L M N O P Q R S T U V W Y Z
Tags
Language
Tags

Featured TV Shows


The Blacklist S05E01

Posted By: Tavaz
1080p (FullHD) / BDRip IMDb
The Blacklist S05E01

The Blacklist S05E01
BluRay Remux | MKV | 1920x1080 | English | H264 @ 22345 kbps | DTS | 43 min 2 s | 7.37 GiB
Subtitles: Français, English
Genre: Drama, Crime, Mystery


Raymond "Red" Reddington, one of the FBI's most wanted fugitives, surrenders in person at FBI Headquarters in Washington, D.C. He claims that he and the FBI have the same interests: bringing down dangerous criminals and terrorists. In the last two decades, he's made a list of criminals and terrorists that matter the most but the FBI cannot find because it does not know they exist. Reddington calls this "The Blacklist". Reddington will co-operate, but insists that he will speak only to Elizabeth Keen, a rookie FBI profiler.

il3QSHJ3QNlniCcg.mkv (7.4 GB)



General
Unique ID : 230736844677123172713495456568581939323 (0xAD964CC28EAF8C935B546F176FF9E07B)
Complete name : ./il3QSHJ3QNlniCcg.mkv
Format : Matroska
Format version : Version 4 / Version 2
File size : 7.37 GiB
Duration : 43 min 2 s
Overall bit rate mode : Variable
Overall bit rate : 24.5 Mb/s
Encoded date : UTC 2018-08-30 12:52:36
Writing application : mkvmerge v26.0.0 ('In The Game') 64-bit
Writing library : libebml v1.3.6 + libmatroska v1.4.9

Video
ID : 1
Format : AVC
Format/Info : Advanced Video Codec
Format profile : High@L4.1
Format settings : CABAC / 2 Ref Frames
Format settings, CABAC : Yes
Format settings, RefFrames : 2 frames
Codec ID : V_MPEG4/ISO/AVC
Duration : 43 min 1 s
Bit rate mode : Variable
Bit rate : 22.3 Mb/s
Width : 1 920 pixels
Height : 1 080 pixels
Display aspect ratio : 16:9
Frame rate mode : Constant
Frame rate : 23.976 (24000/1001) FPS
Color space : YUV
Chroma subsampling : 4:2:0
Bit depth : 8 bits
Scan type : Progressive
Bits/(Pixel*Frame) : 0.449
Stream size : 6.72 GiB (91%)
Title : MPEG-4 AVC Video / 22346 kbps / 1080p / 23.976 fps / 16:9 / High Profile 4.1
Language : English
Default : Yes
Forced : No

Audio
ID : 2
Format : DTS
Format/Info : Digital Theater Systems
Format profile : MA / Core
Mode : 16
Format settings, Endianness : Big
Codec ID : A_DTS
Duration : 43 min 2 s
Bit rate mode : Variable / Constant
Bit rate : 2 048 kb/s / 1 509 kb/s
Channel(s) : 6 channels
Channel positions : Front: L C R, Side: L R, LFE
Sampling rate : 48.0 kHz
Frame rate : 93.750 FPS (512 SPF)
Bit depth : 16 bits
Compression mode : Lossless / Lossy
Stream size : 630 MiB (8%)
Title : DTS-HD Master Audio / 5.1 / 48 kHz / 2046 kbps / 16-bit
Language : English
Default : Yes
Forced : No

Text #1
ID : 3
Format : PGS
Codec ID : S_HDMV/PGS
Codec ID/Info : Picture based subtitle format used on BDs/HD-DVDs
Duration : 41 min 54 s
Bit rate : 49.7 kb/s
Count of elements : 1350
Stream size : 14.9 MiB (0%)
Language : English
Default : No
Forced : No

Text #2
ID : 4
Format : PGS
Codec ID : S_HDMV/PGS
Codec ID/Info : Picture based subtitle format used on BDs/HD-DVDs
Duration : 42 min 24 s
Bit rate : 54.2 kb/s
Count of elements : 1542
Stream size : 16.4 MiB (0%)
Title : SDH
Language : English
Default : No
Forced : No

Text #3
ID : 5
Format : PGS
Codec ID : S_HDMV/PGS
Codec ID/Info : Picture based subtitle format used on BDs/HD-DVDs
Duration : 42 min 37 s
Bit rate : 32.3 kb/s
Count of elements : 1362
Stream size : 9.84 MiB (0%)
Language : French
Default : No
Forced : No

Menu
00:00:00.000 : en:Chapter 1
00:02:51.463 : en:Chapter 2
00:17:19.956 : en:Chapter 3
00:22:51.537 : en:Chapter 4
00:28:01.555 : en:Chapter 5
00:33:01.396 : en:Chapter 6
00:42:24.542 : en:Chapter 7





The Blacklist S05E01


The Blacklist S05E01


The Blacklist S05E01


The Blacklist S05E01


The Blacklist S05E01

All episodes