Index
# A B C D E F G H I J K L M N O P Q R S T U V W Y Z
Tags
Language
Tags

Featured TV Shows


The Blacklist S05E02

Posted By: Tavaz
1080p (FullHD) / BDRip IMDb
The Blacklist S05E02

The Blacklist S05E02
BluRay Remux | MKV | 1920x1080 | English | H264 @ 22361 kbps | DTS | 43 min 3 s | 7.36 GiB
Subtitles: Français, English
Genre: Drama, Crime, Mystery


Raymond "Red" Reddington, one of the FBI's most wanted fugitives, surrenders in person at FBI Headquarters in Washington, D.C. He claims that he and the FBI have the same interests: bringing down dangerous criminals and terrorists. In the last two decades, he's made a list of criminals and terrorists that matter the most but the FBI cannot find because it does not know they exist. Reddington calls this "The Blacklist". Reddington will co-operate, but insists that he will speak only to Elizabeth Keen, a rookie FBI profiler.

XDOF1XTAYcyW6Xui.mkv (7.4 GB)



General
Unique ID : 120103355611068918877034555806361882001 (0x5A5B109D3D261A0ED3766A2CA2748D91)
Complete name : ./XDOF1XTAYcyW6Xui.mkv
Format : Matroska
Format version : Version 4 / Version 2
File size : 7.36 GiB
Duration : 43 min 3 s
Overall bit rate mode : Variable
Overall bit rate : 24.5 Mb/s
Encoded date : UTC 2018-08-30 12:56:28
Writing application : mkvmerge v26.0.0 ('In The Game') 64-bit
Writing library : libebml v1.3.6 + libmatroska v1.4.9

Video
ID : 1
Format : AVC
Format/Info : Advanced Video Codec
Format profile : High@L4.1
Format settings : CABAC / 2 Ref Frames
Format settings, CABAC : Yes
Format settings, RefFrames : 2 frames
Codec ID : V_MPEG4/ISO/AVC
Duration : 43 min 3 s
Bit rate mode : Variable
Bit rate : 22.4 Mb/s
Width : 1 920 pixels
Height : 1 080 pixels
Display aspect ratio : 16:9
Frame rate mode : Constant
Frame rate : 23.976 (24000/1001) FPS
Color space : YUV
Chroma subsampling : 4:2:0
Bit depth : 8 bits
Scan type : Progressive
Bits/(Pixel*Frame) : 0.450
Stream size : 6.72 GiB (91%)
Title : MPEG-4 AVC Video / 22361 kbps / 1080p / 23.976 fps / 16:9 / High Profile 4.1
Language : English
Default : Yes
Forced : No

Audio
ID : 2
Format : DTS
Format/Info : Digital Theater Systems
Format profile : MA / Core
Mode : 16
Format settings, Endianness : Big
Codec ID : A_DTS
Duration : 43 min 3 s
Bit rate mode : Variable / Constant
Bit rate : 1 992 kb/s / 1 509 kb/s
Channel(s) : 6 channels
Channel positions : Front: L C R, Side: L R, LFE
Sampling rate : 48.0 kHz
Frame rate : 93.750 FPS (512 SPF)
Bit depth : 16 bits
Compression mode : Lossless / Lossy
Stream size : 613 MiB (8%)
Title : DTS-HD Master Audio / 5.1 / 48 kHz / 1992 kbps / 16-bit
Language : English
Default : Yes
Forced : No

Text #1
ID : 3
Format : PGS
Codec ID : S_HDMV/PGS
Codec ID/Info : Picture based subtitle format used on BDs/HD-DVDs
Duration : 14 s 265 ms
Bit rate : 60.6 kb/s
Count of elements : 8
Stream size : 105 KiB (0%)
Title : Forced
Language : English
Default : Yes
Forced : No

Text #2
ID : 4
Format : PGS
Codec ID : S_HDMV/PGS
Codec ID/Info : Picture based subtitle format used on BDs/HD-DVDs
Duration : 41 min 14 s
Bit rate : 49.1 kb/s
Count of elements : 1248
Stream size : 14.5 MiB (0%)
Language : English
Default : No
Forced : No

Text #3
ID : 5
Format : PGS
Codec ID : S_HDMV/PGS
Codec ID/Info : Picture based subtitle format used on BDs/HD-DVDs
Duration : 42 min 26 s
Bit rate : 51.6 kb/s
Count of elements : 1400
Stream size : 15.7 MiB (0%)
Title : SDH
Language : English
Default : No
Forced : No

Text #4
ID : 6
Format : PGS
Codec ID : S_HDMV/PGS
Codec ID/Info : Picture based subtitle format used on BDs/HD-DVDs
Duration : 41 min 58 s
Bit rate : 33.4 kb/s
Count of elements : 1316
Stream size : 10.0 MiB (0%)
Language : French
Default : No
Forced : No

Menu
00:00:00.000 : en:Chapter 1
00:02:44.206 : en:Chapter 2
00:07:02.464 : en:Chapter 3
00:16:46.881 : en:Chapter 4
00:23:00.963 : en:Chapter 5
00:30:07.389 : en:Chapter 6
00:35:07.105 : en:Chapter 7
00:42:26.002 : en:Chapter 8





The Blacklist S05E02


The Blacklist S05E02


The Blacklist S05E02


The Blacklist S05E02


The Blacklist S05E02

All episodes