Index
# A B C D E F G H I J K L M N O P Q R S T U V W Y Z
Tags
Language
Tags

Featured TV Shows


The Blacklist S05E14

Posted By: Tavaz
1080p (FullHD) / BDRip IMDb
The Blacklist S05E14

The Blacklist S05E14
BluRay Remux | MKV | 1920x1080 | English | H264 @ 22378 kbps | DTS | 43 min 3 s | 7.35 GiB
Subtitles: Français, English
Genre: Drama, Crime, Mystery


Raymond "Red" Reddington, one of the FBI's most wanted fugitives, surrenders in person at FBI Headquarters in Washington, D.C. He claims that he and the FBI have the same interests: bringing down dangerous criminals and terrorists. In the last two decades, he's made a list of criminals and terrorists that matter the most but the FBI cannot find because it does not know they exist. Reddington calls this "The Blacklist". Reddington will co-operate, but insists that he will speak only to Elizabeth Keen, a rookie FBI profiler.

l5E3VYtglZM9kmYO.mkv (7.4 GB)



General
Unique ID : 322830320349984777321414581616404428214 (0xF2DEDBABE7BE905109F58E65503575B6)
Complete name : ./l5E3VYtglZM9kmYO.mkv
Format : Matroska
Format version : Version 4 / Version 2
File size : 7.35 GiB
Duration : 43 min 3 s
Overall bit rate mode : Variable
Overall bit rate : 24.5 Mb/s
Encoded date : UTC 2018-08-30 13:55:59
Writing application : mkvmerge v26.0.0 ('In The Game') 64-bit
Writing library : libebml v1.3.6 + libmatroska v1.4.9

Video
ID : 1
Format : AVC
Format/Info : Advanced Video Codec
Format profile : High@L4.1
Format settings : CABAC / 2 Ref Frames
Format settings, CABAC : Yes
Format settings, RefFrames : 2 frames
Codec ID : V_MPEG4/ISO/AVC
Duration : 43 min 3 s
Bit rate mode : Variable
Bit rate : 22.4 Mb/s
Width : 1 920 pixels
Height : 1 080 pixels
Display aspect ratio : 16:9
Frame rate mode : Constant
Frame rate : 23.976 (24000/1001) FPS
Color space : YUV
Chroma subsampling : 4:2:0
Bit depth : 8 bits
Scan type : Progressive
Bits/(Pixel*Frame) : 0.450
Stream size : 6.73 GiB (92%)
Title : MPEG-4 AVC Video / 22378 kbps / 1080p / 23.976 fps / 16:9 / High Profile 4.1
Language : English
Default : Yes
Forced : No

Audio
ID : 2
Format : DTS
Format/Info : Digital Theater Systems
Format profile : MA / Core
Mode : 16
Format settings, Endianness : Big
Codec ID : A_DTS
Duration : 43 min 3 s
Bit rate mode : Variable / Constant
Bit rate : 1 920 kb/s / 1 509 kb/s
Channel(s) : 6 channels
Channel positions : Front: L C R, Side: L R, LFE
Sampling rate : 48.0 kHz
Frame rate : 93.750 FPS (512 SPF)
Bit depth : 16 bits
Compression mode : Lossless / Lossy
Stream size : 596 MiB (8%)
Title : DTS-HD Master Audio / 5.1 / 48 kHz / 1934 kbps / 16-bit
Language : English
Default : Yes
Forced : No

Text #1
ID : 3
Format : PGS
Codec ID : S_HDMV/PGS
Codec ID/Info : Picture based subtitle format used on BDs/HD-DVDs
Duration : 42 min 12 s
Bit rate : 50.4 kb/s
Count of elements : 1344
Stream size : 15.2 MiB (0%)
Language : English
Default : No
Forced : No

Text #2
ID : 4
Format : PGS
Codec ID : S_HDMV/PGS
Codec ID/Info : Picture based subtitle format used on BDs/HD-DVDs
Duration : 42 min 21 s
Bit rate : 53.1 kb/s
Count of elements : 1462
Stream size : 16.1 MiB (0%)
Title : SDH
Language : English
Default : No
Forced : No

Text #3
ID : 5
Format : PGS
Codec ID : S_HDMV/PGS
Codec ID/Info : Picture based subtitle format used on BDs/HD-DVDs
Duration : 42 min 51 s
Bit rate : 33.5 kb/s
Count of elements : 1348
Stream size : 10.3 MiB (0%)
Language : French
Default : No
Forced : No

Menu
00:00:00.000 : en:Chapter 1
00:02:45.874 : en:Chapter 2
00:08:51.489 : en:Chapter 3
00:15:35.434 : en:Chapter 4
00:22:35.896 : en:Chapter 5
00:27:46.874 : en:Chapter 6
00:34:21.017 : en:Chapter 7
00:42:26.669 : en:Chapter 8





The Blacklist S05E14


The Blacklist S05E14


The Blacklist S05E14


The Blacklist S05E14


The Blacklist S05E14

All episodes