Index
# A B C D E F G H I J K L M N O P Q R S T U V W Y Z
Tags
Language
Tags

Featured TV Shows


The Blacklist S05E18

Posted By: Tavaz
The Blacklist S05E18

The Blacklist S05E18
MKV | 640x480 | H264 @ 329 kbps | MPEG Audio @ 128 kbps | 43 min 15 s | 145 MiB
Genre: Crime, Drama, Mystery

Raymond "Red" Reddington, one of the FBI's most wanted fugitives, surrenders in person at FBI Headquarters in Washington, D.C. He claims that he and the FBI have the same interests: bringing down dangerous criminals and terrorists. In the last two decades, he's made a list of criminals and terrorists that matter the most but the FBI cannot find because it does not know they exist. Reddington calls this "The Blacklist". Reddington will co-operate, but insists that he will speak only to Elizabeth Keen, a rookie FBI profiler.

397bbc2fb2e64883a5eb0d6e3654a94d.mkv (144.5 MB)



General
Unique ID : 76126228874805310680442311544813537503 (0x394560DD23CD708AFE23464A390A48DF)
Complete name : ./397bbc2fb2e64883a5eb0d6e3654a94d.mkv
Format : Matroska
Format version : Version 4 / Version 2
File size : 145 MiB
Duration : 43 min 15 s
Overall bit rate : 467 kb/s
Writing application : Lavf57.79.100
Writing library : Lavf57.79.100
ErrorDetectionType : Per level 1

Video
ID : 1
Format : AVC
Format/Info : Advanced Video Codec
Format profile : High@L3
Format settings : CABAC / 4 Ref Frames
Format settings, CABAC : Yes
Format settings, RefFrames : 4 frames
Codec ID : V_MPEG4/ISO/AVC
Duration : 43 min 15 s
Bit rate : 330 kb/s
Width : 640 pixels
Height : 480 pixels
Display aspect ratio : 16:9
Frame rate mode : Constant
Frame rate : 23.976 (24000/1001) FPS
Color space : YUV
Chroma subsampling : 4:2:0
Bit depth : 8 bits
Scan type : Progressive
Bits/(Pixel*Frame) : 0.045
Stream size : 102 MiB (71%)
Writing library : x264 core 152 r2851 ba24899
Encoding settings : cabac=1 / ref=1 / deblock=1:0:0 / analyse=0x3:0x113 / me=hex / subme=2 / psy=1 / psy_rd=1.00:0.00 / mixed_ref=0 / me_range=16 / chroma_me=1 / trellis=0 / 8x8dct=1 / cqm=0 / deadzone=21,11 / fast_pskip=1 / chroma_qp_offset=0 / threads=12 / lookahead_threads=3 / sliced_threads=0 / nr=0 / decimate=1 / interlaced=0 / bluray_compat=0 / constrained_intra=0 / bframes=3 / b_pyramid=2 / b_adapt=1 / b_bias=0 / direct=1 / weightb=1 / open_gop=0 / weightp=1 / keyint=250 / keyint_min=23 / scenecut=40 / intra_refresh=0 / rc_lookahead=10 / rc=crf / mbtree=1 / crf=23.0 / qcomp=0.60 / qpmin=0 / qpmax=69 / qpstep=4 / ip_ratio=1.40 / aq=1:1.00
Default : Yes
Forced : No
Statistics Tags Issue : mkvmerge v21.0.0 ('Tardigrades Will Inherit The Earth') 64-bit 2018-04-12 09:10:11 / Lavf57.79.100
FromStats_BitRate : 2325163
FromStats_Duration : 00:43:15.220000000
FromStats_FrameCount : 62223
FromStats_StreamSize : 754288037

Audio
ID : 2
Format : MPEG Audio
Format version : Version 1
Format profile : Layer 3
Format settings : Joint stereo / MS Stereo
Mode : Joint stereo
Mode extension : MS Stereo
Codec ID : A_MPEG/L3
Codec ID/Hint : MP3
Duration : 43 min 15 s
Bit rate mode : Constant
Bit rate : 128 kb/s
Channel(s) : 2 channels
Sampling rate : 44.1 kHz
Compression mode : Lossy
Stream size : 39.6 MiB (27%)
Writing library : LAME3.99.5
Default : Yes
Forced : No
Statistics Tags Issue : mkvmerge v21.0.0 ('Tardigrades Will Inherit The Earth') 64-bit 2018-04-12 09:10:11 / Lavf57.79.100
FromStats_BitRate : 95734
FromStats_Duration : 00:43:15.170000000
FromStats_FrameCount : 111769
FromStats_StreamSize : 31055767





The Blacklist S05E18


The Blacklist S05E18


The Blacklist S05E18


The Blacklist S05E18


The Blacklist S05E18

All episodes