Index
# A B C D E F G H I J K L M N O P Q R S T U V W Y Z
Tags
Language
Tags

Featured TV Shows


The Blacklist S06E06

Posted By: Tavaz
1080p (FullHD) / BDRip IMDb
The Blacklist S06E06

The Blacklist S06E06
BluRay Remux | MKV | 1920x1080 | English | H264 @ 24828 kbps | DTS | 42 min 59 s | 8.16 GiB
Subtitles: French, English
Genre: Crime, Drama, Mystery


Raymond "Red" Reddington, one of the FBI's most wanted fugitives, surrenders in person at FBI Headquarters in Washington, D.C. He claims that he and the FBI have the same interests: bringing down dangerous criminals and terrorists. In the last two decades, he's made a list of criminals and terrorists that matter the most but the FBI cannot find because it does not know they exist. Reddington calls this "The Blacklist". Reddington will co-operate, but insists that he will speak only to Elizabeth Keen, a rookie FBI profiler.

The.Blacklist.S06E06.The.Ethicist.1080p.BluRay.REMUX.AVC.DTS-HD.MA.5.1-EPSiLON-WhiteRev=ac9461ff2ef817f1d0f1aef83431b11834395450.part1.rar (4.3 GB)
The.Blacklist.S06E06.The.Ethicist.1080p.BluRay.REMUX.AVC.DTS-HD.MA.5.1-EPSiLON-WhiteRev=ac9461ff2ef817f1d0f1aef83431b11834395450.part2.rar (4.0 GB)



General
Unique ID : 76930563023421873352486387056574377289 (0x39E049995F8367EAFB5682BF2896AD49)
Complete name : ./cf0a132088be4bfd9ea0f47b66c53a97.mkv
Format : Matroska
Format version : Version 4 / Version 2
File size : 8.16 GiB
Duration : 42 min 59 s
Overall bit rate mode : Variable
Overall bit rate : 27.2 Mb/s
Movie name : The Blacklist - S06E06 - The Ethicist
Track name/Position : 6
Track name/Total : 22
Encoded date : UTC 2019-09-05 09:36:31
Writing application : mkvmerge v34.0.0 ('Sight and Seen') 64-bit
Writing library : libebml v1.3.9 + libmatroska v1.5.2
IMDB : tt8992996
TMDB : tv/46952
TVDB : 266189

Video
ID : 1
Format : AVC
Format/Info : Advanced Video Codec
Format profile : High@L4.1
Format settings : CABAC / 2 Ref Frames
Format settings, CABAC : Yes
Format settings, RefFrames : 2 frames
Codec ID : V_MPEG4/ISO/AVC
Duration : 42 min 59 s
Bit rate mode : Variable
Bit rate : 24.8 Mb/s
Width : 1 920 pixels
Height : 1 080 pixels
Display aspect ratio : 16:9
Frame rate mode : Constant
Frame rate : 23.976 (24000/1001) FPS
Color space : YUV
Chroma subsampling : 4:2:0
Bit depth : 8 bits
Scan type : Progressive
Bits/(Pixel*Frame) : 0.499
Stream size : 7.46 GiB (91%)
Title : MPEG-4 AVC Video / 24964 kbps / 1080p / 23.976 fps / 16:9 / High Profile 4.1
Language : English
Default : Yes
Forced : No

Audio
ID : 2
Format : DTS
Format/Info : Digital Theater Systems
Format profile : MA / Core
Mode : 16
Format settings, Endianness : Big
Codec ID : A_DTS
Duration : 42 min 59 s
Bit rate mode : Variable / Constant
Bit rate : 2 214 kb/s / 1 509 kb/s
Channel(s) : 6 channels
Channel positions : Front: L C R, Side: L R, LFE
Sampling rate : 48.0 kHz
Frame rate : 93.750 FPS (512 SPF)
Bit depth : 16 bits
Compression mode : Lossless / Lossy
Stream size : 681 MiB (8%)
Title : DTS-HD Master Audio / 5.1 / 48 kHz / 2214 kbps / 16-bit
Language : English
Default : Yes
Forced : No

Text #1
ID : 3
Format : PGS
Codec ID : S_HDMV/PGS
Codec ID/Info : Picture based subtitle format used on BDs/HD-DVDs
Duration : 41 min 41 s
Bit rate : 53.3 kb/s
Count of elements : 1214
Stream size : 15.9 MiB (0%)
Language : English
Default : No
Forced : No

Text #2
ID : 4
Format : PGS
Codec ID : S_HDMV/PGS
Codec ID/Info : Picture based subtitle format used on BDs/HD-DVDs
Duration : 42 min 22 s
Bit rate : 55.0 kb/s
Count of elements : 1306
Stream size : 16.7 MiB (0%)
Title : SDH
Language : English
Default : No
Forced : No

Text #3
ID : 5
Format : PGS
Codec ID : S_HDMV/PGS
Codec ID/Info : Picture based subtitle format used on BDs/HD-DVDs
Duration : 42 min 20 s
Bit rate : 34.5 kb/s
Count of elements : 1222
Stream size : 10.4 MiB (0%)
Language : French
Default : No
Forced : No

Menu
00:00:00.000 : en:Chapter 1
00:02:08.962 : en:Chapter 2
00:10:35.009 : en:Chapter 3
00:16:27.653 : en:Chapter 4
00:21:44.803 : en:Chapter 5
00:28:45.140 : en:Chapter 6
00:34:03.083 : en:Chapter 7
00:42:22.457 : en:Chapter 8





The Blacklist S06E06


The Blacklist S06E06


The Blacklist S06E06


The Blacklist S06E06


The Blacklist S06E06

All episodes