Featured TV Shows


The Blacklist S06E11

Posted By: Tavaz
1080p (FullHD) / HDTV IMDb
The Blacklist S06E11

The Blacklist S06E11
HDTV | MKV | 1920x1080 | French / English | H264 @ 8937 kbps | AAC @ 61 kbps | 40 min 34 s | 2.57 GiB
Subtitles: French
Genre: Crime, Drama, Mystery


Raymond "Red" Reddington, one of the FBI's most wanted fugitives, surrenders in person at FBI Headquarters in Washington, D.C. He claims that he and the FBI have the same interests: bringing down dangerous criminals and terrorists. In the last two decades, he's made a list of criminals and terrorists that matter the most but the FBI cannot find because it does not know they exist. Reddington calls this "The Blacklist". Reddington will co-operate, but insists that he will speak only to Elizabeth Keen, a rookie FBI profiler.

591514d467134d69878ffeaf2cd359f2.mkv (2.6 GB)



General
Unique ID : 16493736658055890084430991499971233320 (0xC6894007D22FFAC63772DAB250F8628)
Complete name : ./591514d467134d69878ffeaf2cd359f2.mkv
Format : Matroska
Format version : Version 4 / Version 2
File size : 2.57 GiB
Duration : 40 min 34 s
Overall bit rate : 9 065 kb/s
Encoded date : UTC 2019-06-12 06:36:27
Writing application : mkvmerge v34.0.0 ('Sight and Seen') 64-bit
Writing library : libebml v1.3.7 + libmatroska v1.5.0

Video
ID : 1
Format : AVC
Format/Info : Advanced Video Codec
Format profile : High@L4
Format settings : CABAC / 4 Ref Frames
Format settings, CABAC : Yes
Format settings, RefFrames : 4 frames
Codec ID : V_MPEG4/ISO/AVC
Duration : 40 min 34 s
Bit rate : 8 938 kb/s
Width : 1 920 pixels
Height : 1 080 pixels
Display aspect ratio : 16:9
Frame rate mode : Variable
Frame rate : 25.032 FPS
Original frame rate : 25.000 FPS
Standard : Component
Color space : YUV
Chroma subsampling : 4:2:0
Bit depth : 8 bits
Scan type : MBAFF
Scan type, store method : Separated fields
Scan order : Top Field First
Bits/(Pixel*Frame) : 0.172
Stream size : 2.53 GiB (99%)
Default : Yes
Forced : No
Color range : Limited
Color primaries : BT.709
Transfer characteristics : BT.709
Matrix coefficients : BT.709

Audio #1
ID : 2
Format : AAC
Format/Info : Advanced Audio Codec
Format profile : HE-AAC / LC
Format settings : Explicit
Codec ID : A_AAC-2
Duration : 40 min 34 s
Bit rate : 61.9 kb/s
Channel(s) : 2 channels
Channel positions : Front: L R
Sampling rate : 48.0 kHz / 24.0 kHz
Frame rate : 23.438 FPS (1024 SPF)
Compression mode : Lossy
Stream size : 18.0 MiB (1%)
Title : French
Language : French
Default : Yes
Forced : No

Audio #2
ID : 3
Format : AAC
Format/Info : Advanced Audio Codec
Format profile : HE-AAC / LC
Format settings : Explicit
Codec ID : A_AAC-2
Duration : 40 min 34 s
Bit rate : 61.9 kb/s
Channel(s) : 2 channels
Channel positions : Front: L R
Sampling rate : 48.0 kHz / 24.0 kHz
Frame rate : 23.438 FPS (1024 SPF)
Compression mode : Lossy
Stream size : 18.0 MiB (1%)
Title : English
Language : English
Default : No
Forced : No

Text #1
ID : 4
Format : UTF-8
Codec ID : S_TEXT/UTF8
Codec ID/Info : UTF-8 Plain Text
Duration : 39 min 55 s
Bit rate : 79 b/s
Count of elements : 763
Stream size : 23.1 KiB (0%)
Title : French
Language : French
Default : No
Forced : No

Text #2
ID : 5
Format : UTF-8
Codec ID : S_TEXT/UTF8
Codec ID/Info : UTF-8 Plain Text
Duration : 39 min 57 s
Bit rate : 81 b/s
Count of elements : 743
Stream size : 23.8 KiB (0%)
Title : French (SDH)
Language : French
Default : No
Forced : No





The Blacklist S06E11


The Blacklist S06E11


The Blacklist S06E11


The Blacklist S06E11


The Blacklist S06E11

All episodes