Index
# A B C D E F G H I J K L M N O P Q R S T U V W Y Z
Tags
Language
Tags

Featured TV Shows


The Blacklist S06E14

Posted By: Tavaz
1080p (FullHD) / BDRip IMDb
The Blacklist S06E14

The Blacklist S06E14
BluRay Remux | MKV | 1920x1080 | English / English | H264 @ 24760 kbps | DTS | 43 min 0 s | 8.24 GiB
Subtitles: French, English
Genre: Crime, Drama, Mystery


Raymond "Red" Reddington, one of the FBI's most wanted fugitives, surrenders in person at FBI Headquarters in Washington, D.C. He claims that he and the FBI have the same interests: bringing down dangerous criminals and terrorists. In the last two decades, he's made a list of criminals and terrorists that matter the most but the FBI cannot find because it does not know they exist. Reddington calls this "The Blacklist". Reddington will co-operate, but insists that he will speak only to Elizabeth Keen, a rookie FBI profiler.

The.Blacklist.S06E14.The.Osterman.Umbrella.Company.1080p.BluRay.REMUX.AVC.DTS-HD.MA.5.1-EPSiLON-WhiteRev=dcf48efdd427231d8c60b4d0a05371620d5a42e2.part1.rar (4.3 GB)
The.Blacklist.S06E14.The.Osterman.Umbrella.Company.1080p.BluRay.REMUX.AVC.DTS-HD.MA.5.1-EPSiLON-WhiteRev=dcf48efdd427231d8c60b4d0a05371620d5a42e2.part2.rar (4.0 GB)



General
Unique ID : 240160145705096289974190219597286963355 (0xB4AD295F05DDED798AFEDF63FEB3789B)
Complete name : ./85249c67b70d4ef89e31a6f7e08ada2b.mkv
Format : Matroska
Format version : Version 4 / Version 2
File size : 8.24 GiB
Duration : 43 min 0 s
Overall bit rate mode : Variable
Overall bit rate : 27.4 Mb/s
Movie name : The Blacklist - S06E14 - The Osterman Umbrella Company
Track name/Position : 14
Track name/Total : 22
Encoded date : UTC 2019-09-05 09:47:51
Writing application : mkvmerge v34.0.0 ('Sight and Seen') 64-bit
Writing library : libebml v1.3.9 + libmatroska v1.5.2
IMDB : tt9261282
TMDB : tv/46952
TVDB : 266189

Video
ID : 1
Format : AVC
Format/Info : Advanced Video Codec
Format profile : High@L4.1
Format settings : CABAC / 2 Ref Frames
Format settings, CABAC : Yes
Format settings, RefFrames : 2 frames
Codec ID : V_MPEG4/ISO/AVC
Duration : 42 min 59 s
Bit rate mode : Variable
Bit rate : 24.8 Mb/s
Width : 1 920 pixels
Height : 1 080 pixels
Display aspect ratio : 16:9
Frame rate mode : Constant
Frame rate : 23.976 (24000/1001) FPS
Color space : YUV
Chroma subsampling : 4:2:0
Bit depth : 8 bits
Scan type : Progressive
Bits/(Pixel*Frame) : 0.498
Stream size : 7.44 GiB (90%)
Title : MPEG-4 AVC Video / 24694 kbps / 1080p / 23.976 fps / 16:9 / High Profile 4.1
Language : English
Default : Yes
Forced : No

Audio #1
ID : 2
Format : DTS
Format/Info : Digital Theater Systems
Format profile : MA / Core
Mode : 16
Format settings, Endianness : Big
Codec ID : A_DTS
Duration : 43 min 0 s
Bit rate mode : Variable / Constant
Bit rate : 2 281 kb/s / 1 509 kb/s
Channel(s) : 6 channels
Channel positions : Front: L C R, Side: L R, LFE
Sampling rate : 48.0 kHz
Frame rate : 93.750 FPS (512 SPF)
Bit depth : 16 bits
Compression mode : Lossless / Lossy
Stream size : 702 MiB (8%)
Title : DTS-HD Master Audio / 5.1 / 48 kHz / 2281 kbps / 16-bit
Language : English
Default : Yes
Forced : No

Audio #2
ID : 3
Format : AC-3
Format/Info : Audio Coding 3
Format settings, Endianness : Big
Codec ID : A_AC3
Duration : 43 min 0 s
Bit rate mode : Constant
Bit rate : 192 kb/s
Channel(s) : 2 channels
Channel positions : Front: L R
Sampling rate : 48.0 kHz
Frame rate : 31.250 FPS (1536 SPF)
Bit depth : 16 bits
Compression mode : Lossy
Stream size : 59.1 MiB (1%)
Title : Commentary by episode writer Sean Hennen and actor Amir Arison
Language : English
Service kind : Complete Main
Default : No
Forced : No

Text #1
ID : 4
Format : PGS
Codec ID : S_HDMV/PGS
Codec ID/Info : Picture based subtitle format used on BDs/HD-DVDs
Duration : 43 s 919 ms
Bit rate : 16.9 kb/s
Count of elements : 10
Stream size : 90.8 KiB (0%)
Title : Forced for foreign parts
Language : English
Default : Yes
Forced : Yes

Text #2
ID : 5
Format : PGS
Codec ID : S_HDMV/PGS
Codec ID/Info : Picture based subtitle format used on BDs/HD-DVDs
Duration : 40 min 30 s
Bit rate : 45.2 kb/s
Count of elements : 1168
Stream size : 13.1 MiB (0%)
Language : English
Default : No
Forced : No

Text #3
ID : 6
Format : PGS
Codec ID : S_HDMV/PGS
Codec ID/Info : Picture based subtitle format used on BDs/HD-DVDs
Duration : 42 min 22 s
Bit rate : 46.5 kb/s
Count of elements : 1330
Stream size : 14.1 MiB (0%)
Title : SDH
Language : English
Default : No
Forced : No

Text #4
ID : 7
Format : PGS
Codec ID : S_HDMV/PGS
Codec ID/Info : Picture based subtitle format used on BDs/HD-DVDs
Duration : 42 min 40 s
Bit rate : 29.0 kb/s
Count of elements : 1158
Stream size : 8.84 MiB (0%)
Language : French
Default : No
Forced : No

Text #5
ID : 8
Format : PGS
Codec ID : S_HDMV/PGS
Codec ID/Info : Picture based subtitle format used on BDs/HD-DVDs
Duration : 42 min 47 s
Bit rate : 81.6 kb/s
Count of elements : 1649
Stream size : 25.0 MiB (0%)
Title : Commentary by episode writer Sean Hennen and actor Amir Arison
Language : English
Default : No
Forced : No

Menu
00:00:00.000 : en:Chapter 1
00:01:30.924 : en:Chapter 2
00:06:52.287 : en:Chapter 3
00:14:02.467 : en:Chapter 4
00:20:16.715 : en:Chapter 5
00:27:06.041 : en:Chapter 6
00:32:05.757 : en:Chapter 7
00:42:22.957 : en:Chapter 8





The Blacklist S06E14


The Blacklist S06E14


The Blacklist S06E14


The Blacklist S06E14


The Blacklist S06E14

All episodes