Index
# A B C D E F G H I J K L M N O P Q R S T U V W Y Z
Tags
Language
Tags

Featured TV Shows


The Blacklist S06E18

Posted By: Tavaz
1080p (FullHD) / BDRip IMDb
The Blacklist S06E18

The Blacklist S06E18
BluRay Remux | MKV | 1920x1080 | English / English | H264 @ 24814 kbps | DTS | 43 min 0 s | 8.23 GiB
Subtitles: French, English
Genre: Crime, Drama, Mystery


Raymond "Red" Reddington, one of the FBI's most wanted fugitives, surrenders in person at FBI Headquarters in Washington, D.C. He claims that he and the FBI have the same interests: bringing down dangerous criminals and terrorists. In the last two decades, he's made a list of criminals and terrorists that matter the most but the FBI cannot find because it does not know they exist. Reddington calls this "The Blacklist". Reddington will co-operate, but insists that he will speak only to Elizabeth Keen, a rookie FBI profiler.

The.Blacklist.S06E18.The.Brockton.College.Killer.1080p.BluRay.REMUX.AVC.DTS-HD.MA.5.1-EPSiLON-WhiteRev=94b9105983943e6a706f510e15c6b01abb6fbc74.part1.rar (4.3 GB)
The.Blacklist.S06E18.The.Brockton.College.Killer.1080p.BluRay.REMUX.AVC.DTS-HD.MA.5.1-EPSiLON-WhiteRev=94b9105983943e6a706f510e15c6b01abb6fbc74.part2.rar (4.0 GB)



General
Unique ID : 113651597181200154141450369721030383577 (0x5580805D509718D08514835635EF97D9)
Complete name : ./ee8bde540825431babbd592f375daf30.mkv
Format : Matroska
Format version : Version 4 / Version 2
File size : 8.23 GiB
Duration : 43 min 0 s
Overall bit rate mode : Variable
Overall bit rate : 27.4 Mb/s
Movie name : The Blacklist - S06E18 - The Brockton College Killer
Track name/Position : 18
Track name/Total : 22
Encoded date : UTC 2019-09-05 09:12:32
Writing application : mkvmerge v34.0.0 ('Sight and Seen') 64-bit
Writing library : libebml v1.3.9 + libmatroska v1.5.2
IMDB : tt9664014
TMDB : tv/46952
TVDB : 266189

Video
ID : 1
Format : AVC
Format/Info : Advanced Video Codec
Format profile : High@L4.1
Format settings : CABAC / 2 Ref Frames
Format settings, CABAC : Yes
Format settings, RefFrames : 2 frames
Codec ID : V_MPEG4/ISO/AVC
Duration : 42 min 59 s
Bit rate mode : Variable
Bit rate : 24.8 Mb/s
Width : 1 920 pixels
Height : 1 080 pixels
Display aspect ratio : 16:9
Frame rate mode : Constant
Frame rate : 23.976 (24000/1001) FPS
Color space : YUV
Chroma subsampling : 4:2:0
Bit depth : 8 bits
Scan type : Progressive
Bits/(Pixel*Frame) : 0.499
Stream size : 7.45 GiB (91%)
Title : MPEG-4 AVC Video / 24694 kbps / 1080p / 23.976 fps / 16:9 / High Profile 4..1
Language : English
Default : Yes
Forced : No

Audio #1
ID : 2
Format : DTS
Format/Info : Digital Theater Systems
Format profile : MA / Core
Mode : 16
Format settings, Endianness : Big
Codec ID : A_DTS
Duration : 43 min 0 s
Bit rate mode : Variable / Constant
Bit rate : 2 179 kb/s / 1 509 kb/s
Channel(s) : 6 channels
Channel positions : Front: L C R, Side: L R, LFE
Sampling rate : 48.0 kHz
Frame rate : 93.750 FPS (512 SPF)
Bit depth : 16 bits
Compression mode : Lossless / Lossy
Stream size : 670 MiB (8%)
Title : DTS-HD Master Audio / 5.1 / 48 kHz / 2179 kbps / 16-bit
Language : English
Default : Yes
Forced : No

Audio #2
ID : 3
Format : AC-3
Format/Info : Audio Coding 3
Format settings, Endianness : Big
Codec ID : A_AC3
Duration : 43 min 0 s
Bit rate mode : Constant
Bit rate : 192 kb/s
Channel(s) : 2 channels
Channel positions : Front: L R
Sampling rate : 48.0 kHz
Frame rate : 31.250 FPS (1536 SPF)
Bit depth : 16 bits
Compression mode : Lossy
Stream size : 59.1 MiB (1%)
Title : Commentary by episode writer Sam Christopher and episode editor Orlando Machado Jr.
Language : English
Service kind : Complete Main
Default : No
Forced : No

Text #1
ID : 4
Format : PGS
Codec ID : S_HDMV/PGS
Codec ID/Info : Picture based subtitle format used on BDs/HD-DVDs
Duration : 41 min 49 s
Bit rate : 45.2 kb/s
Count of elements : 1226
Stream size : 13.5 MiB (0%)
Language : English
Default : No
Forced : No

Text #2
ID : 5
Format : PGS
Codec ID : S_HDMV/PGS
Codec ID/Info : Picture based subtitle format used on BDs/HD-DVDs
Duration : 42 min 22 s
Bit rate : 47.6 kb/s
Count of elements : 1356
Stream size : 14.4 MiB (0%)
Title : SDH
Language : English
Default : No
Forced : No

Text #3
ID : 6
Format : PGS
Codec ID : S_HDMV/PGS
Codec ID/Info : Picture based subtitle format used on BDs/HD-DVDs
Duration : 42 min 56 s
Bit rate : 29.9 kb/s
Count of elements : 1218
Stream size : 9.18 MiB (0%)
Language : French
Default : No
Forced : No

Text #4
ID : 7
Format : PGS
Codec ID : S_HDMV/PGS
Codec ID/Info : Picture based subtitle format used on BDs/HD-DVDs
Duration : 42 min 45 s
Bit rate : 76.0 kb/s
Count of elements : 1668
Stream size : 23.2 MiB (0%)
Title : Commentary by episode writer Sam Christopher and episode editor Orlando Machado Jr.
Language : English
Default : No
Forced : No

Menu
00:00:00.000 : en:Chapter 1
00:01:44.062 : en:Chapter 2
00:10:33.925 : en:Chapter 3
00:17:00.853 : en:Chapter 4
00:22:02.446 : en:Chapter 5
00:27:24.226 : en:Chapter 6
00:33:10.363 : en:Chapter 7
00:42:22.999 : en:Chapter 8





The Blacklist S06E18


The Blacklist S06E18


The Blacklist S06E18


The Blacklist S06E18


The Blacklist S06E18

All episodes