Index
# A B C D E F G H I J K L M N O P Q R S T U V W Y Z
Tags
Language
Tags

Featured TV Shows


The Blacklist S07E01

Posted By: Tavaz
1080p (FullHD) / BDRip IMDb
The Blacklist S07E01

The Blacklist S07E01
BluRay Remux | MKV | 1920x1080 | English | H264 @ 21756 kbps | DTS | 42 min 59 s | 7.33 GiB
Subtitles: Français, Suomi, Svenska, Nederlands, Dansk, English
Genre: Crime, Drama, Mystery


Raymond "Red" Reddington, one of the FBI's most wanted fugitives, surrenders in person at FBI Headquarters in Washington, D.C. He claims that he and the FBI have the same interests: bringing down dangerous criminals and terrorists. In the last two decades, he's made a list of criminals and terrorists that matter the most but the FBI cannot find because it does not know they exist. Reddington calls this "The Blacklist". Reddington will co-operate, but insists that he will speak only to Elizabeth Keen, a rookie FBI profiler.

37608a0e79d0c0b86d45a804d4640921.mkv (7.3 GB)



General
Unique ID : 119702861067477838436926761315911360083 (0x5A0DEEB56D824960574AAD9C7D885E53)
Complete name : ./37608a0e79d0c0b86d45a804d4640921.mkv
Format : Matroska
Format version : Version 4 / Version 2
File size : 7.33 GiB
Duration : 42 min 59 s
Overall bit rate mode : Variable
Overall bit rate : 24.4 Mb/s
Encoded date : UTC 2020-08-31 03:34:20
Writing application : mkvmerge v49.0.0 ('Sick Of Losing Soulmates') 64-bit
Writing library : libebml v1.4.0 + libmatroska v1.6.1

Video
ID : 1
Format : AVC
Format/Info : Advanced Video Codec
Format profile : High@L4.1
Format settings : CABAC / 2 Ref Frames
Format settings, CABAC : Yes
Format settings, RefFrames : 2 frames
Format settings, GOP : M=1, N=10
Codec ID : V_MPEG4/ISO/AVC
Duration : 42 min 59 s
Bit rate mode : Variable
Bit rate : 21.8 Mb/s
Width : 1 920 pixels
Height : 1 080 pixels
Display aspect ratio : 16:9
Frame rate mode : Constant
Frame rate : 23.976 (24000/1001) FPS
Color space : YUV
Chroma subsampling : 4:2:0
Bit depth : 8 bits
Scan type : Progressive
Bits/(Pixel*Frame) : 0.438
Stream size : 6.53 GiB (89%)
Title : MPEG-4 AVC Video / 21756 kbps / 1080p / 23.976 fps / 16:9 / High Profile 4.1
Language : English
Default : Yes
Forced : No

Audio
ID : 2
Format : DTS
Format/Info : Digital Theater Systems
Format profile : MA / Core
Mode : 16
Format settings, Endianness : Big
Codec ID : A_DTS
Duration : 42 min 59 s
Bit rate mode : Variable / Constant
Bit rate : 2 214 kb/s / 1 509 kb/s
Channel(s) : 6 channels
Channel positions : Front: L C R, Side: L R, LFE
Sampling rate : 48.0 kHz
Frame rate : 93.750 FPS (512 SPF)
Bit depth : 16 bits
Compression mode : Lossless / Lossy
Stream size : 681 MiB (9%)
Title : DTS-HD Master Audio / 5.1 / 48 kHz / 2214 kbps / 16-bit
Language : English
Default : Yes
Forced : No

Text #1
ID : 3
Format : PGS
Codec ID : S_HDMV/PGS
Codec ID/Info : Picture based subtitle format used on BDs/HD-DVDs
Duration : 31 min 53 s
Bit rate : 897 b/s
Count of elements : 30
Stream size : 210 KiB (0%)
Title : Forced for non-English dialogue
Language : English
Default : Yes
Forced : Yes

Text #2
ID : 4
Format : PGS
Codec ID : S_HDMV/PGS
Codec ID/Info : Picture based subtitle format used on BDs/HD-DVDs
Duration : 41 min 13 s
Bit rate : 46.1 kb/s
Count of elements : 1232
Stream size : 13.6 MiB (0%)
Title : English (USA)
Language : English
Default : No
Forced : No

Text #3
ID : 5
Format : PGS
Codec ID : S_HDMV/PGS
Codec ID/Info : Picture based subtitle format used on BDs/HD-DVDs
Duration : 41 min 13 s
Bit rate : 46.1 kb/s
Count of elements : 1232
Stream size : 13.6 MiB (0%)
Title : English (UK)
Language : English
Default : No
Forced : No

Text #4
ID : 6
Format : PGS
Codec ID : S_HDMV/PGS
Codec ID/Info : Picture based subtitle format used on BDs/HD-DVDs
Duration : 42 min 21 s
Bit rate : 49.0 kb/s
Count of elements : 1390
Stream size : 14.9 MiB (0%)
Title : English SDH (USA)
Language : English
Default : No
Forced : No

Text #5
ID : 7
Format : PGS
Codec ID : S_HDMV/PGS
Codec ID/Info : Picture based subtitle format used on BDs/HD-DVDs
Duration : 42 min 21 s
Bit rate : 49.0 kb/s
Count of elements : 1390
Stream size : 14.9 MiB (0%)
Title : English SDH (UK)
Language : English
Default : No
Forced : No

Text #6
ID : 8
Format : PGS
Codec ID : S_HDMV/PGS
Codec ID/Info : Picture based subtitle format used on BDs/HD-DVDs
Duration : 42 min 55 s
Bit rate : 43.7 kb/s
Count of elements : 1127
Stream size : 13.4 MiB (0%)
Language : Danish
Default : No
Forced : No

Text #7
ID : 9
Format : PGS
Codec ID : S_HDMV/PGS
Codec ID/Info : Picture based subtitle format used on BDs/HD-DVDs
Duration : 42 min 55 s
Bit rate : 39.0 kb/s
Count of elements : 1160
Stream size : 12.0 MiB (0%)
Language : Dutch
Default : No
Forced : No

Text #8
ID : 10
Format : PGS
Codec ID : S_HDMV/PGS
Codec ID/Info : Picture based subtitle format used on BDs/HD-DVDs
Duration : 42 min 55 s
Bit rate : 41.6 kb/s
Count of elements : 1152
Stream size : 12.8 MiB (0%)
Language : Finnish
Default : No
Forced : No

Text #9
ID : 11
Format : PGS
Codec ID : S_HDMV/PGS
Codec ID/Info : Picture based subtitle format used on BDs/HD-DVDs
Duration : 41 min 45 s
Bit rate : 37.0 kb/s
Count of elements : 1362
Stream size : 11.1 MiB (0%)
Language : French
Default : No
Forced : No

Text #10
ID : 12
Format : PGS
Codec ID : S_HDMV/PGS
Codec ID/Info : Picture based subtitle format used on BDs/HD-DVDs
Duration : 42 min 55 s
Bit rate : 35.1 kb/s
Count of elements : 884
Stream size : 10.8 MiB (0%)
Language : Norwegian
Default : No
Forced : No

Text #11
ID : 13
Format : PGS
Codec ID : S_HDMV/PGS
Codec ID/Info : Picture based subtitle format used on BDs/HD-DVDs
Duration : 42 min 55 s
Bit rate : 39.0 kb/s
Count of elements : 1152
Stream size : 12.0 MiB (0%)
Language : Swedish
Default : No
Forced : No

Menu
00:00:00.000 : en:Chapter 1
00:02:48.376 : en:Chapter 2
00:10:29.629 : en:Chapter 3
00:17:45.564 : en:Chapter 4
00:23:45.924 : en:Chapter 5
00:30:36.960 : en:Chapter 6
00:37:02.887 : en:Chapter 7
00:42:22.039 : en:Chapter 8





The Blacklist S07E01


The Blacklist S07E01


The Blacklist S07E01


The Blacklist S07E01


The Blacklist S07E01

All episodes