Index
# A B C D E F G H I J K L M N O P Q R S T U V W Y Z
Tags
Language
Tags

Featured TV Shows


The Blacklist S07E02

Posted By: Tavaz
1080p (FullHD) / BDRip IMDb
The Blacklist S07E02

The Blacklist S07E02
BluRay Remux | MKV | 1920x1080 | English | H264 @ 21820 kbps | DTS | 43 min 0 s | 7.35 GiB
Subtitles: Français, Suomi, Svenska, Nederlands, Dansk, English
Genre: Crime, Drama, Mystery


Raymond "Red" Reddington, one of the FBI's most wanted fugitives, surrenders in person at FBI Headquarters in Washington, D.C. He claims that he and the FBI have the same interests: bringing down dangerous criminals and terrorists. In the last two decades, he's made a list of criminals and terrorists that matter the most but the FBI cannot find because it does not know they exist. Reddington calls this "The Blacklist". Reddington will co-operate, but insists that he will speak only to Elizabeth Keen, a rookie FBI profiler.

a0301f56ed37d9f828a28323a9a0bbec.mkv (7.4 GB)



General
Unique ID : 269702835877880608381118718937130085431 (0xCAE6E0740551F89C544BF35A5F942C37)
Complete name : ./a0301f56ed37d9f828a28323a9a0bbec.mkv
Format : Matroska
Format version : Version 4 / Version 2
File size : 7.35 GiB
Duration : 43 min 0 s
Overall bit rate mode : Variable
Overall bit rate : 24.5 Mb/s
Encoded date : UTC 2020-08-31 03:41:04
Writing application : mkvmerge v49.0.0 ('Sick Of Losing Soulmates') 64-bit
Writing library : libebml v1.4.0 + libmatroska v1.6.1

Video
ID : 1
Format : AVC
Format/Info : Advanced Video Codec
Format profile : High@L4.1
Format settings : CABAC / 2 Ref Frames
Format settings, CABAC : Yes
Format settings, RefFrames : 2 frames
Format settings, GOP : M=1, N=10
Codec ID : V_MPEG4/ISO/AVC
Duration : 43 min 0 s
Bit rate mode : Variable
Bit rate : 21.8 Mb/s
Width : 1 920 pixels
Height : 1 080 pixels
Display aspect ratio : 16:9
Frame rate mode : Constant
Frame rate : 23.976 (24000/1001) FPS
Color space : YUV
Chroma subsampling : 4:2:0
Bit depth : 8 bits
Scan type : Progressive
Bits/(Pixel*Frame) : 0.439
Stream size : 6.56 GiB (89%)
Title : MPEG-4 AVC Video / 21820 kbps / 1080p / 23.976 fps / 16:9 / High Profile 4.1
Language : English
Default : Yes
Forced : No

Audio
ID : 2
Format : DTS
Format/Info : Digital Theater Systems
Format profile : MA / Core
Mode : 16
Format settings, Endianness : Big
Codec ID : A_DTS
Duration : 43 min 0 s
Bit rate mode : Variable / Constant
Bit rate : 2 248 kb/s / 1 509 kb/s
Channel(s) : 6 channels
Channel positions : Front: L C R, Side: L R, LFE
Sampling rate : 48.0 kHz
Frame rate : 93.750 FPS (512 SPF)
Bit depth : 16 bits
Compression mode : Lossless / Lossy
Stream size : 692 MiB (9%)
Title : DTS-HD Master Audio / 5.1 / 48 kHz / 2248 kbps / 16-bit
Language : English
Default : Yes
Forced : No

Text #1
ID : 3
Format : PGS
Codec ID : S_HDMV/PGS
Codec ID/Info : Picture based subtitle format used on BDs/HD-DVDs
Duration : 2 s 2 ms
Bit rate : 35.2 kb/s
Count of elements : 2
Stream size : 8.60 KiB (0%)
Title : Forced for non-English dialogue
Language : English
Default : Yes
Forced : Yes

Text #2
ID : 4
Format : PGS
Codec ID : S_HDMV/PGS
Codec ID/Info : Picture based subtitle format used on BDs/HD-DVDs
Duration : 42 min 4 s
Bit rate : 41.7 kb/s
Count of elements : 1368
Stream size : 12.5 MiB (0%)
Title : English (USA)
Language : English
Default : No
Forced : No

Text #3
ID : 5
Format : PGS
Codec ID : S_HDMV/PGS
Codec ID/Info : Picture based subtitle format used on BDs/HD-DVDs
Duration : 42 min 4 s
Bit rate : 41.7 kb/s
Count of elements : 1368
Stream size : 12.6 MiB (0%)
Title : English (UK)
Language : English
Default : No
Forced : No

Text #4
ID : 6
Format : PGS
Codec ID : S_HDMV/PGS
Codec ID/Info : Picture based subtitle format used on BDs/HD-DVDs
Duration : 42 min 23 s
Bit rate : 45.5 kb/s
Count of elements : 1488
Stream size : 13.8 MiB (0%)
Title : English SDH (USA)
Language : English
Default : No
Forced : No

Text #5
ID : 7
Format : PGS
Codec ID : S_HDMV/PGS
Codec ID/Info : Picture based subtitle format used on BDs/HD-DVDs
Duration : 42 min 23 s
Bit rate : 45.5 kb/s
Count of elements : 1488
Stream size : 13.8 MiB (0%)
Title : English SDH (UK)
Language : English
Default : No
Forced : No

Text #6
ID : 8
Format : PGS
Codec ID : S_HDMV/PGS
Codec ID/Info : Picture based subtitle format used on BDs/HD-DVDs
Duration : 42 min 53 s
Bit rate : 41.1 kb/s
Count of elements : 1144
Stream size : 12.6 MiB (0%)
Language : Danish
Default : No
Forced : No

Text #7
ID : 9
Format : PGS
Codec ID : S_HDMV/PGS
Codec ID/Info : Picture based subtitle format used on BDs/HD-DVDs
Duration : 42 min 53 s
Bit rate : 37.0 kb/s
Count of elements : 1182
Stream size : 11.4 MiB (0%)
Language : Dutch
Default : No
Forced : No

Text #8
ID : 10
Format : PGS
Codec ID : S_HDMV/PGS
Codec ID/Info : Picture based subtitle format used on BDs/HD-DVDs
Duration : 42 min 53 s
Bit rate : 38.5 kb/s
Count of elements : 1170
Stream size : 11.8 MiB (0%)
Language : Finnish
Default : No
Forced : No

Text #9
ID : 11
Format : PGS
Codec ID : S_HDMV/PGS
Codec ID/Info : Picture based subtitle format used on BDs/HD-DVDs
Duration : 42 min 52 s
Bit rate : 34.7 kb/s
Count of elements : 1334
Stream size : 10.6 MiB (0%)
Language : French
Default : No
Forced : No

Text #10
ID : 12
Format : PGS
Codec ID : S_HDMV/PGS
Codec ID/Info : Picture based subtitle format used on BDs/HD-DVDs
Duration : 42 min 53 s
Bit rate : 35.3 kb/s
Count of elements : 884
Stream size : 10.8 MiB (0%)
Language : Norwegian
Default : No
Forced : No

Text #11
ID : 13
Format : PGS
Codec ID : S_HDMV/PGS
Codec ID/Info : Picture based subtitle format used on BDs/HD-DVDs
Duration : 42 min 53 s
Bit rate : 37.3 kb/s
Count of elements : 1270
Stream size : 11.4 MiB (0%)
Language : Swedish
Default : No
Forced : No

Menu
00:00:00.000 : en:Chapter 1
00:01:58.409 : en:Chapter 2
00:08:31.260 : en:Chapter 3
00:14:30.578 : en:Chapter 4
00:22:01.695 : en:Chapter 5
00:31:07.115 : en:Chapter 6
00:36:13.462 : en:Chapter 7
00:42:23.499 : en:Chapter 8





The Blacklist S07E02


The Blacklist S07E02


The Blacklist S07E02


The Blacklist S07E02


The Blacklist S07E02

All episodes