Index
# A B C D E F G H I J K L M N O P Q R S T U V W Y Z
Tags
Language
Tags

Featured TV Shows


The Blacklist S07E08

Posted By: Tavaz
1080p (FullHD) / BDRip IMDb
The Blacklist S07E08

The Blacklist S07E08
BluRay Remux | MKV | 1920x1080 | English | H264 @ 21797 kbps | DTS | 42 min 57 s | 7.35 GiB
Subtitles: Français, Suomi, Svenska, Nederlands, Dansk, English
Genre: Crime, Drama, Mystery


Raymond "Red" Reddington, one of the FBI's most wanted fugitives, surrenders in person at FBI Headquarters in Washington, D.C. He claims that he and the FBI have the same interests: bringing down dangerous criminals and terrorists. In the last two decades, he's made a list of criminals and terrorists that matter the most but the FBI cannot find because it does not know they exist. Reddington calls this "The Blacklist". Reddington will co-operate, but insists that he will speak only to Elizabeth Keen, a rookie FBI profiler.

9cc54bf50dede942c970f74a9b4e50d5.mkv (7.4 GB)



General
Unique ID : 168928641424974924858417828666318684466 (0x7F16790FE04D8632FC562C88ED8E8132)
Complete name : ./9cc54bf50dede942c970f74a9b4e50d5.mkv
Format : Matroska
Format version : Version 4 / Version 2
File size : 7.35 GiB
Duration : 42 min 57 s
Overall bit rate mode : Variable
Overall bit rate : 24.5 Mb/s
Encoded date : UTC 2020-08-31 07:46:18
Writing application : mkvmerge v49.0.0 ('Sick Of Losing Soulmates') 64-bit
Writing library : libebml v1.4.0 + libmatroska v1.6.1

Video
ID : 1
Format : AVC
Format/Info : Advanced Video Codec
Format profile : High@L4.1
Format settings : CABAC / 2 Ref Frames
Format settings, CABAC : Yes
Format settings, RefFrames : 2 frames
Format settings, GOP : M=1, N=10
Codec ID : V_MPEG4/ISO/AVC
Duration : 42 min 57 s
Bit rate mode : Variable
Bit rate : 21.8 Mb/s
Width : 1 920 pixels
Height : 1 080 pixels
Display aspect ratio : 16:9
Frame rate mode : Constant
Frame rate : 23.976 (24000/1001) FPS
Color space : YUV
Chroma subsampling : 4:2:0
Bit depth : 8 bits
Scan type : Progressive
Bits/(Pixel*Frame) : 0.438
Stream size : 6.54 GiB (89%)
Title : MPEG-4 AVC Video / 21797 kbps / 1080p / 23.976 fps / 16:9 / High Profile 4.1
Language : English
Default : Yes
Forced : No

Audio
ID : 2
Format : DTS
Format/Info : Digital Theater Systems
Format profile : MA / Core
Mode : 16
Format settings, Endianness : Big
Codec ID : A_DTS
Duration : 42 min 57 s
Bit rate mode : Variable / Constant
Bit rate : 2 251 kb/s / 1 509 kb/s
Channel(s) : 6 channels
Channel positions : Front: L C R, Side: L R, LFE
Sampling rate : 48.0 kHz
Frame rate : 93.750 FPS (512 SPF)
Bit depth : 16 bits
Compression mode : Lossless / Lossy
Stream size : 692 MiB (9%)
Title : DTS-HD Master Audio / 5.1 / 48 kHz / 2251 kbps / 16-bit
Language : English
Default : Yes
Forced : No

Text #1
ID : 3
Format : PGS
Codec ID : S_HDMV/PGS
Codec ID/Info : Picture based subtitle format used on BDs/HD-DVDs
Duration : 40 s 290 ms
Bit rate : 38.6 kb/s
Count of elements : 24
Stream size : 190 KiB (0%)
Title : Forced for non-English dialogue
Language : English
Default : Yes
Forced : Yes

Text #2
ID : 4
Format : PGS
Codec ID : S_HDMV/PGS
Codec ID/Info : Picture based subtitle format used on BDs/HD-DVDs
Duration : 41 min 54 s
Bit rate : 49.2 kb/s
Count of elements : 1350
Stream size : 14.8 MiB (0%)
Title : English (USA)
Language : English
Default : No
Forced : No

Text #3
ID : 5
Format : PGS
Codec ID : S_HDMV/PGS
Codec ID/Info : Picture based subtitle format used on BDs/HD-DVDs
Duration : 41 min 54 s
Bit rate : 49.2 kb/s
Count of elements : 1350
Stream size : 14.8 MiB (0%)
Title : English (UK)
Language : English
Default : No
Forced : No

Text #4
ID : 6
Format : PGS
Codec ID : S_HDMV/PGS
Codec ID/Info : Picture based subtitle format used on BDs/HD-DVDs
Duration : 42 min 20 s
Bit rate : 52.3 kb/s
Count of elements : 1480
Stream size : 15.9 MiB (0%)
Title : English SDH (USA)
Language : English
Default : No
Forced : No

Text #5
ID : 7
Format : PGS
Codec ID : S_HDMV/PGS
Codec ID/Info : Picture based subtitle format used on BDs/HD-DVDs
Duration : 42 min 20 s
Bit rate : 52.3 kb/s
Count of elements : 1480
Stream size : 15.9 MiB (0%)
Title : English SDH (UK)
Language : English
Default : No
Forced : No

Text #6
ID : 8
Format : PGS
Codec ID : S_HDMV/PGS
Codec ID/Info : Picture based subtitle format used on BDs/HD-DVDs
Duration : 42 min 37 s
Bit rate : 45.9 kb/s
Count of elements : 1092
Stream size : 14.0 MiB (0%)
Language : Danish
Default : No
Forced : No

Text #7
ID : 9
Format : PGS
Codec ID : S_HDMV/PGS
Codec ID/Info : Picture based subtitle format used on BDs/HD-DVDs
Duration : 42 min 37 s
Bit rate : 40.7 kb/s
Count of elements : 1212
Stream size : 12.4 MiB (0%)
Language : Dutch
Default : No
Forced : No

Text #8
ID : 10
Format : PGS
Codec ID : S_HDMV/PGS
Codec ID/Info : Picture based subtitle format used on BDs/HD-DVDs
Duration : 42 min 37 s
Bit rate : 43.2 kb/s
Count of elements : 1198
Stream size : 13.2 MiB (0%)
Language : Finnish
Default : No
Forced : No

Text #9
ID : 11
Format : PGS
Codec ID : S_HDMV/PGS
Codec ID/Info : Picture based subtitle format used on BDs/HD-DVDs
Duration : 42 min 37 s
Bit rate : 44.0 kb/s
Count of elements : 1516
Stream size : 13.4 MiB (0%)
Language : French
Default : No
Forced : No

Text #10
ID : 12
Format : PGS
Codec ID : S_HDMV/PGS
Codec ID/Info : Picture based subtitle format used on BDs/HD-DVDs
Duration : 42 min 37 s
Bit rate : 38.9 kb/s
Count of elements : 990
Stream size : 11.9 MiB (0%)
Language : Norwegian
Default : No
Forced : No

Text #11
ID : 13
Format : PGS
Codec ID : S_HDMV/PGS
Codec ID/Info : Picture based subtitle format used on BDs/HD-DVDs
Duration : 42 min 37 s
Bit rate : 41.3 kb/s
Count of elements : 1262
Stream size : 12.6 MiB (0%)
Language : Swedish
Default : No
Forced : No

Menu
00:00:00.000 : en:Chapter 1
00:01:23.666 : en:Chapter 2
00:06:32.600 : en:Chapter 3
00:15:31.472 : en:Chapter 4
00:21:35.127 : en:Chapter 5
00:29:02.741 : en:Chapter 6
00:34:46.584 : en:Chapter 7
00:42:20.496 : en:Chapter 8





The Blacklist S07E08


The Blacklist S07E08


The Blacklist S07E08


The Blacklist S07E08


The Blacklist S07E08

All episodes