Index
# A B C D E F G H I J K L M N O P Q R S T U V W Y Z
Tags
Language
Tags

Featured TV Shows


The Blacklist S07E13

Posted By: Tavaz
The Blacklist S07E13

The Blacklist S07E13
MKV | 1920x1080 | English / Italiano | H264 @ 10000 kbps | AC-3 @ 384 kbps | 41 min 14 s | 2.97 GiB
Subtitles: English, Italiano
Genre: Crime, Dramma, Mistero


Raymond “Red” Reddington (interpretato da James Spader) è un genio del crimine internazionale ricercato dalle polizie di tutto il mondo e si presenta improvvisamente nel quartier generale dell’FBI per costituirsi: per salvarsi da pene carcerarie che lo chiuderebbero a vita in prigione, offre il suo aiuto per catturare i nomi contenuti in una sua speciale black list dove sarebbero contenuti i contatti dei più pericolosi terroristi in circolazione, criminali dalle mille false identità sconosciuti e imprendibili per la stessa FBI. Reddington pone una condizione alla sua offerta d’aiuto: darà informazioni solo a Elizabeth Keen (Megan Boone), una giovane profiler dell’FBI assunta da un giorno all’intelligence, che sarà catapultata al centro di un torbido intrigo.

f1fce9ee508d797dccfafd75dee90767.mkv (3.0 GB)



General
Unique ID : 181730635979126468019190865959274874705 (0x88B80C2014011F429907CF65C5370751)
Complete name : ./f1fce9ee508d797dccfafd75dee90767.mkv
Format : Matroska
Format version : Version 4 / Version 2
File size : 2.97 GiB
Duration : 41 min 14 s
Overall bit rate : 10.3 Mb/s
Encoded date : UTC 2020-05-23 10:32:47
Writing application : mkvmerge v7.1.0 ('Good Love') 32bit built on Jul 27 2014 12:59:18
Writing library : libebml v1.3.0 + libmatroska v1.4.1

Video
ID : 1
Format : AVC
Format/Info : Advanced Video Codec
Format profile : High@L4
Format settings : CABAC / 4 Ref Frames
Format settings, CABAC : Yes
Format settings, RefFrames : 4 frames
Codec ID : V_MPEG4/ISO/AVC
Duration : 41 min 14 s
Bit rate mode : Constant
Bit rate : 10 000 kb/s
Width : 1 920 pixels
Height : 1 080 pixels
Display aspect ratio : 16:9
Frame rate mode : Constant
Frame rate : 25.000 FPS
Original frame rate : 23.976 (24000/1001) FPS
Color space : YUV
Chroma subsampling : 4:2:0
Bit depth : 8 bits
Scan type : Progressive
Bits/(Pixel*Frame) : 0.193
Stream size : 2.80 GiB (94%)
Default : Yes
Forced : No
Color range : Limited
Color primaries : BT.709
Transfer characteristics : BT.709
Matrix coefficients : BT.709

Audio #1
ID : 2
Format : AC-3
Format/Info : Audio Coding 3
Format settings, Endianness : Big
Codec ID : A_AC3
Duration : 41 min 14 s
Bit rate mode : Constant
Bit rate : 384 kb/s
Channel(s) : 6 channels
Channel positions : Front: L C R, Side: L R, LFE
Sampling rate : 48.0 kHz
Frame rate : 31.250 FPS (1536 SPF)
Bit depth : 16 bits
Compression mode : Lossy
Stream size : 113 MiB (4%)
Title : ITA
Language : Italian
Service kind : Complete Main
Default : Yes
Forced : Yes

Audio #2
ID : 3
Format : AC-3
Format/Info : Audio Coding 3
Format settings, Endianness : Big
Codec ID : A_AC3
Duration : 41 min 14 s
Bit rate mode : Constant
Bit rate : 192 kb/s
Channel(s) : 6 channels
Channel positions : Front: L C R, Side: L R, LFE
Sampling rate : 48.0 kHz
Frame rate : 31.250 FPS (1536 SPF)
Bit depth : 16 bits
Compression mode : Lossy
Stream size : 56.6 MiB (2%)
Title : ENG
Language : English
Service kind : Complete Main
Default : No
Forced : No

Text #1
ID : 4
Format : UTF-8
Codec ID : S_TEXT/UTF8
Codec ID/Info : UTF-8 Plain Text
Duration : 33 min 23 s
Bit rate : 1 b/s
Count of elements : 8
Stream size : 416 Bytes (0%)
Title : Forced
Language : Italian
Default : Yes
Forced : Yes

Text #2
ID : 5
Format : UTF-8
Codec ID : S_TEXT/UTF8
Codec ID/Info : UTF-8 Plain Text
Duration : 39 min 46 s
Bit rate : 102 b/s
Count of elements : 783
Stream size : 29.7 KiB (0%)
Language : Italian
Default : No
Forced : No

Text #3
ID : 6
Format : UTF-8
Codec ID : S_TEXT/UTF8
Codec ID/Info : UTF-8 Plain Text
Duration : 41 min 4 s
Bit rate : 100 b/s
Count of elements : 916
Stream size : 30.1 KiB (0%)
Title : SDH
Language : English
Default : No
Forced : No





The Blacklist S07E13


The Blacklist S07E13


The Blacklist S07E13


The Blacklist S07E13


The Blacklist S07E13

All episodes