Index
# A B C D E F G H I J K L M N O P Q R S T U V W Y Z
Tags
Language
Tags

Featured TV Shows


The Blacklist S07E14

Posted By: Tavaz
1080p (FullHD) / BDRip IMDb
The Blacklist S07E14

The Blacklist S07E14
BluRay Remux | MKV | 1920x1080 | English | H264 @ 21738 kbps | DTS | 42 min 58 s | 7.32 GiB
Subtitles: Français, Suomi, Svenska, Nederlands, Dansk, English
Genre: Crime, Drama, Mystery


Raymond "Red" Reddington, one of the FBI's most wanted fugitives, surrenders in person at FBI Headquarters in Washington, D.C. He claims that he and the FBI have the same interests: bringing down dangerous criminals and terrorists. In the last two decades, he's made a list of criminals and terrorists that matter the most but the FBI cannot find because it does not know they exist. Reddington calls this "The Blacklist". Reddington will co-operate, but insists that he will speak only to Elizabeth Keen, a rookie FBI profiler.

1ba72ee00bb48431d90d8cd284dc2503.mkv (7.3 GB)



General
Unique ID : 234543011658808084065300950862158258816 (0xB0735747D8CCC856074EBC38B6AE6280)
Complete name : ./1ba72ee00bb48431d90d8cd284dc2503.mkv
Format : Matroska
Format version : Version 4 / Version 2
File size : 7.32 GiB
Duration : 42 min 58 s
Overall bit rate mode : Variable
Overall bit rate : 24.4 Mb/s
Encoded date : UTC 2020-08-31 18:22:46
Writing application : mkvmerge v49.0.0 ('Sick Of Losing Soulmates') 64-bit
Writing library : libebml v1.4.0 + libmatroska v1.6.1

Video
ID : 1
Format : AVC
Format/Info : Advanced Video Codec
Format profile : High@L4.1
Format settings : CABAC / 2 Ref Frames
Format settings, CABAC : Yes
Format settings, RefFrames : 2 frames
Codec ID : V_MPEG4/ISO/AVC
Duration : 42 min 58 s
Bit rate mode : Variable
Bit rate : 21.7 Mb/s
Width : 1 920 pixels
Height : 1 080 pixels
Display aspect ratio : 16:9
Frame rate mode : Constant
Frame rate : 23.976 (24000/1001) FPS
Color space : YUV
Chroma subsampling : 4:2:0
Bit depth : 8 bits
Scan type : Progressive
Bits/(Pixel*Frame) : 0.437
Stream size : 6.53 GiB (89%)
Title : MPEG-4 AVC Video / 21739 kbps / 1080p / 23.976 fps / 16:9 / High Profile 4.1
Language : English
Default : Yes
Forced : No

Audio
ID : 2
Format : DTS
Format/Info : Digital Theater Systems
Format profile : MA / Core
Mode : 16
Format settings, Endianness : Big
Codec ID : A_DTS
Duration : 42 min 58 s
Bit rate mode : Variable / Constant
Bit rate : 2 205 kb/s / 1 509 kb/s
Channel(s) : 6 channels
Channel positions : Front: L C R, Side: L R, LFE
Sampling rate : 48.0 kHz
Frame rate : 93.750 FPS (512 SPF)
Bit depth : 16 bits
Compression mode : Lossless / Lossy
Stream size : 678 MiB (9%)
Title : DTS-HD Master Audio / 5.1 / 48 kHz / 2205 kbps / 16-bit
Language : English
Default : Yes
Forced : No

Text #1
ID : 3
Format : PGS
Codec ID : S_HDMV/PGS
Codec ID/Info : Picture based subtitle format used on BDs/HD-DVDs
Duration : 41 min 59 s
Bit rate : 45.7 kb/s
Count of elements : 1248
Stream size : 13.7 MiB (0%)
Title : English (USA)
Language : English
Default : No
Forced : No

Text #2
ID : 4
Format : PGS
Codec ID : S_HDMV/PGS
Codec ID/Info : Picture based subtitle format used on BDs/HD-DVDs
Duration : 41 min 59 s
Bit rate : 45.7 kb/s
Count of elements : 1248
Stream size : 13.7 MiB (0%)
Title : English (UK)
Language : English
Default : No
Forced : No

Text #3
ID : 5
Format : PGS
Codec ID : S_HDMV/PGS
Codec ID/Info : Picture based subtitle format used on BDs/HD-DVDs
Duration : 42 min 17 s
Bit rate : 48.6 kb/s
Count of elements : 1366
Stream size : 14.7 MiB (0%)
Title : English SDH (USA)
Language : English
Default : No
Forced : No

Text #4
ID : 6
Format : PGS
Codec ID : S_HDMV/PGS
Codec ID/Info : Picture based subtitle format used on BDs/HD-DVDs
Duration : 42 min 17 s
Bit rate : 48.6 kb/s
Count of elements : 1366
Stream size : 14.7 MiB (0%)
Title : English SDH (UK)
Language : English
Default : No
Forced : No

Text #5
ID : 7
Format : PGS
Codec ID : S_HDMV/PGS
Codec ID/Info : Picture based subtitle format used on BDs/HD-DVDs
Duration : 42 min 51 s
Bit rate : 43.7 kb/s
Count of elements : 1096
Stream size : 13.4 MiB (0%)
Language : Danish
Default : No
Forced : No

Text #6
ID : 8
Format : PGS
Codec ID : S_HDMV/PGS
Codec ID/Info : Picture based subtitle format used on BDs/HD-DVDs
Duration : 42 min 51 s
Bit rate : 39.5 kb/s
Count of elements : 1172
Stream size : 12.1 MiB (0%)
Language : Dutch
Default : No
Forced : No

Text #7
ID : 9
Format : PGS
Codec ID : S_HDMV/PGS
Codec ID/Info : Picture based subtitle format used on BDs/HD-DVDs
Duration : 42 min 51 s
Bit rate : 41.8 kb/s
Count of elements : 1182
Stream size : 12.8 MiB (0%)
Language : Finnish
Default : No
Forced : No

Text #8
ID : 10
Format : PGS
Codec ID : S_HDMV/PGS
Codec ID/Info : Picture based subtitle format used on BDs/HD-DVDs
Duration : 42 min 52 s
Bit rate : 39.2 kb/s
Count of elements : 1420
Stream size : 12.0 MiB (0%)
Language : French
Default : No
Forced : No

Text #9
ID : 11
Format : PGS
Codec ID : S_HDMV/PGS
Codec ID/Info : Picture based subtitle format used on BDs/HD-DVDs
Duration : 42 min 51 s
Bit rate : 37.0 kb/s
Count of elements : 966
Stream size : 11.3 MiB (0%)
Language : Norwegian
Default : No
Forced : No

Text #10
ID : 12
Format : PGS
Codec ID : S_HDMV/PGS
Codec ID/Info : Picture based subtitle format used on BDs/HD-DVDs
Duration : 42 min 51 s
Bit rate : 39.9 kb/s
Count of elements : 1182
Stream size : 12.2 MiB (0%)
Language : Swedish
Default : No
Forced : No

Menu
00:00:00.000 : en:Chapter 1
00:01:33.009 : en:Chapter 2
00:06:40.733 : en:Chapter 3
00:12:55.483 : en:Chapter 4
00:20:13.295 : en:Chapter 5
00:25:46.878 : en:Chapter 6
00:32:15.558 : en:Chapter 7
00:42:21.038 : en:Chapter 8





The Blacklist S07E14


The Blacklist S07E14


The Blacklist S07E14


The Blacklist S07E14


The Blacklist S07E14

All episodes