Index
# A B C D E F G H I J K L M N O P Q R S T U V W Y Z
Tags
Language
Tags

Featured TV Shows


The Blacklist S07E17

Posted By: Tavaz
1080p (FullHD) / WEBRip IMDb
The Blacklist S07E17

The Blacklist S07E17
WEBRip | MKV | 1920x1080 | H264 @ 5739 kbps | AAC @ 64 kbps | 43 min 11 s | 1.75 GiB
Subtitles: English
Genre: Crime, Drama, Mystery


Raymond "Red" Reddington, one of the FBI's most wanted fugitives, surrenders in person at FBI Headquarters in Washington, D.C. He claims that he and the FBI have the same interests: bringing down dangerous criminals and terrorists. In the last two decades, he's made a list of criminals and terrorists that matter the most but the FBI cannot find because it does not know they exist. Reddington calls this "The Blacklist". Reddington will co-operate, but insists that he will speak only to Elizabeth Keen, a rookie FBI profiler.

fa692e301957444fb0b3dc49560e9c6f.mkv (1.8 GB)



General
Unique ID : 251233209433073176402372038236582643306 (0xBD01C1903D408F8E00E880C39067066A)
Complete name : ./fa692e301957444fb0b3dc49560e9c6f.mkv
Format : Matroska
Format version : Version 4 / Version 2
File size : 1.75 GiB
Duration : 43 min 11 s
Overall bit rate : 5 805 kb/s
Encoded date : UTC 2020-05-02 09:00:35
Writing application : mkvmerge v43.0.0 ('The Quartermaster') 64-bit
Writing library : libebml v1.3.10 + libmatroska v1.5.2

Video
ID : 1
Format : AVC
Format/Info : Advanced Video Codec
Format profile : High@L4
Format settings : CABAC / 4 Ref Frames
Format settings, CABAC : Yes
Format settings, RefFrames : 4 frames
Codec ID : V_MPEG4/ISO/AVC
Duration : 43 min 11 s
Bit rate : 5 739 kb/s
Width : 1 920 pixels
Height : 1 080 pixels
Display aspect ratio : 16:9
Frame rate mode : Constant
Frame rate : 23.976 (24000/1001) FPS
Color space : YUV
Chroma subsampling : 4:2:0
Bit depth : 8 bits
Scan type : Progressive
Bits/(Pixel*Frame) : 0.115
Stream size : 1.73 GiB (99%)
Default : Yes
Forced : No

Audio
ID : 2
Format : AAC
Format/Info : Advanced Audio Codec
Format profile : HE-AAC / LC
Format settings : Explicit
Codec ID : A_AAC-2
Duration : 43 min 11 s
Bit rate : 64.0 kb/s
Channel(s) : 2 channels
Channel positions : Front: L R
Sampling rate : 48.0 kHz / 24.0 kHz
Frame rate : 23.438 FPS (1024 SPF)
Compression mode : Lossy
Stream size : 19.8 MiB (1%)
Default : Yes
Forced : No

Text
ID : 3
Format : UTF-8
Codec ID : S_TEXT/UTF8
Codec ID/Info : UTF-8 Plain Text
Duration : 43 min 6 s
Bit rate : 80 b/s
Count of elements : 900
Stream size : 25.3 KiB (0%)
Language : English
Default : No
Forced : No





The Blacklist S07E17


The Blacklist S07E17


The Blacklist S07E17


The Blacklist S07E17


The Blacklist S07E17

All episodes