Index
# A B C D E F G H I J K L M N O P Q R S T U V W Y Z
Tags
Language
Tags

Featured TV Shows


The Blacklist S07E19

Posted By: Tavaz
1080p (FullHD) / BDRip IMDb
The Blacklist S07E19

The Blacklist S07E19
BluRay Remux | MKV | 1920x1080 | English | H264 @ 21718 kbps | DTS | 42 min 57 s | 7.51 GiB
Subtitles: Français, Suomi, Svenska, Nederlands, Dansk, English
Genre: Crime, Drama, Mystery


Raymond "Red" Reddington, one of the FBI's most wanted fugitives, surrenders in person at FBI Headquarters in Washington, D.C. He claims that he and the FBI have the same interests: bringing down dangerous criminals and terrorists. In the last two decades, he's made a list of criminals and terrorists that matter the most but the FBI cannot find because it does not know they exist. Reddington calls this "The Blacklist". Reddington will co-operate, but insists that he will speak only to Elizabeth Keen, a rookie FBI profiler.

cc933072fd65f5210ff4dd348d4fc930.mkv (7.5 GB)



General
Unique ID : 283969811575833290705345101022769448836 (0xD5A298A9D7A9A164D939091C26700784)
Complete name : ./cc933072fd65f5210ff4dd348d4fc930.mkv
Format : Matroska
Format version : Version 4 / Version 2
File size : 7.51 GiB
Duration : 42 min 57 s
Overall bit rate mode : Variable
Overall bit rate : 25.0 Mb/s
Encoded date : UTC 2020-08-31 21:53:47
Writing application : mkvmerge v49.0.0 ('Sick Of Losing Soulmates') 64-bit
Writing library : libebml v1.4.0 + libmatroska v1.6.1

Video
ID : 1
Format : AVC
Format/Info : Advanced Video Codec
Format profile : High@L4.1
Format settings : CABAC / 2 Ref Frames
Format settings, CABAC : Yes
Format settings, RefFrames : 2 frames
Codec ID : V_MPEG4/ISO/AVC
Duration : 42 min 57 s
Bit rate mode : Variable
Bit rate : 21.7 Mb/s
Width : 1 920 pixels
Height : 1 080 pixels
Display aspect ratio : 16:9
Frame rate mode : Constant
Frame rate : 23.976 (24000/1001) FPS
Color space : YUV
Chroma subsampling : 4:2:0
Bit depth : 8 bits
Scan type : Progressive
Bits/(Pixel*Frame) : 0.437
Stream size : 6.52 GiB (87%)
Title : MPEG-4 AVC Video / 21718 kbps / 1080p / 23.976 fps / 16:9 / High Profile 4.1
Language : English
Default : Yes
Forced : No

Audio #1
ID : 2
Format : DTS
Format/Info : Digital Theater Systems
Format profile : MA / Core
Mode : 16
Format settings, Endianness : Big
Codec ID : A_DTS
Duration : 42 min 57 s
Bit rate mode : Variable / Constant
Bit rate : 2 338 kb/s / 1 509 kb/s
Channel(s) : 6 channels
Channel positions : Front: L C R, Side: L R, LFE
Sampling rate : 48.0 kHz
Frame rate : 93.750 FPS (512 SPF)
Bit depth : 16 bits
Compression mode : Lossless / Lossy
Stream size : 719 MiB (9%)
Title : DTS-HD Master Audio / 5.1 / 48 kHz / 2338 kbps / 16-bit
Language : English
Default : Yes
Forced : No

Audio #2
ID : 3
Format : AC-3
Format/Info : Audio Coding 3
Mode : Dolby Digital
Format settings, Endianness : Big
Codec ID : A_AC3
Duration : 42 min 57 s
Bit rate mode : Constant
Bit rate : 192 kb/s
Channel(s) : 2 channels
Channel positions : Front: L R
Sampling rate : 48.0 kHz
Frame rate : 31.250 FPS (1536 SPF)
Bit depth : 16 bits
Compression mode : Lossy
Stream size : 59.0 MiB (1%)
Title : Commentary by co-editors Chris Brookshire and Elyse Holloway, and animation supervisors Matt Perrin and Adam Coglan
Language : English
Service kind : Complete Main
Default : No
Forced : No

Text #1
ID : 4
Format : PGS
Codec ID : S_HDMV/PGS
Codec ID/Info : Picture based subtitle format used on BDs/HD-DVDs
Duration : 13 min 39 s
Bit rate : 953 b/s
Count of elements : 12
Stream size : 95.4 KiB (0%)
Title : Forced for non-English dialogue
Language : English
Default : Yes
Forced : Yes

Text #2
ID : 5
Format : PGS
Codec ID : S_HDMV/PGS
Codec ID/Info : Picture based subtitle format used on BDs/HD-DVDs
Duration : 42 min 10 s
Bit rate : 52.4 kb/s
Count of elements : 1380
Stream size : 15.8 MiB (0%)
Title : English (USA)
Language : English
Default : No
Forced : No

Text #3
ID : 6
Format : PGS
Codec ID : S_HDMV/PGS
Codec ID/Info : Picture based subtitle format used on BDs/HD-DVDs
Duration : 42 min 10 s
Bit rate : 52.5 kb/s
Count of elements : 1380
Stream size : 15.8 MiB (0%)
Title : English (UK)
Language : English
Default : No
Forced : No

Text #4
ID : 7
Format : PGS
Codec ID : S_HDMV/PGS
Codec ID/Info : Picture based subtitle format used on BDs/HD-DVDs
Duration : 42 min 19 s
Bit rate : 57.6 kb/s
Count of elements : 1558
Stream size : 17.4 MiB (0%)
Title : English SDH (USA)
Language : English
Default : No
Forced : No

Text #5
ID : 8
Format : PGS
Codec ID : S_HDMV/PGS
Codec ID/Info : Picture based subtitle format used on BDs/HD-DVDs
Duration : 42 min 19 s
Bit rate : 57.6 kb/s
Count of elements : 1558
Stream size : 17.4 MiB (0%)
Title : English SDH (UK)
Language : English
Default : No
Forced : No

Text #6
ID : 9
Format : PGS
Codec ID : S_HDMV/PGS
Codec ID/Info : Picture based subtitle format used on BDs/HD-DVDs
Duration : 42 min 53 s
Bit rate : 52.1 kb/s
Count of elements : 1330
Stream size : 16.0 MiB (0%)
Language : Danish
Default : No
Forced : No

Text #7
ID : 10
Format : PGS
Codec ID : S_HDMV/PGS
Codec ID/Info : Picture based subtitle format used on BDs/HD-DVDs
Duration : 42 min 53 s
Bit rate : 47.4 kb/s
Count of elements : 1344
Stream size : 14.5 MiB (0%)
Language : Dutch
Default : No
Forced : No

Text #8
ID : 11
Format : PGS
Codec ID : S_HDMV/PGS
Codec ID/Info : Picture based subtitle format used on BDs/HD-DVDs
Duration : 42 min 53 s
Bit rate : 51.7 kb/s
Count of elements : 1354
Stream size : 15.8 MiB (0%)
Language : Finnish
Default : No
Forced : No

Text #9
ID : 12
Format : PGS
Codec ID : S_HDMV/PGS
Codec ID/Info : Picture based subtitle format used on BDs/HD-DVDs
Duration : 42 min 53 s
Bit rate : 45.9 kb/s
Count of elements : 1708
Stream size : 14.1 MiB (0%)
Language : French
Default : No
Forced : No

Text #10
ID : 13
Format : PGS
Codec ID : S_HDMV/PGS
Codec ID/Info : Picture based subtitle format used on BDs/HD-DVDs
Duration : 42 min 53 s
Bit rate : 42.2 kb/s
Count of elements : 1104
Stream size : 12.9 MiB (0%)
Language : Norwegian
Default : No
Forced : No

Text #11
ID : 14
Format : PGS
Codec ID : S_HDMV/PGS
Codec ID/Info : Picture based subtitle format used on BDs/HD-DVDs
Duration : 42 min 53 s
Bit rate : 46.5 kb/s
Count of elements : 1356
Stream size : 14.3 MiB (0%)
Language : Swedish
Default : No
Forced : No

Text #12
ID : 15
Format : PGS
Codec ID : S_HDMV/PGS
Codec ID/Info : Picture based subtitle format used on BDs/HD-DVDs
Duration : 42 min 45 s
Bit rate : 68.2 kb/s
Count of elements : 1443
Stream size : 20.9 MiB (0%)
Title : Commentary
Language : English
Default : No
Forced : No

Text #13
ID : 16
Format : PGS
Codec ID : S_HDMV/PGS
Codec ID/Info : Picture based subtitle format used on BDs/HD-DVDs
Duration : 42 min 45 s
Bit rate : 77.8 kb/s
Count of elements : 1569
Stream size : 23.8 MiB (0%)
Title : Commentary (SDH)
Language : English
Default : No
Forced : No

Text #14
ID : 17
Format : PGS
Codec ID : S_HDMV/PGS
Codec ID/Info : Picture based subtitle format used on BDs/HD-DVDs
Duration : 42 min 45 s
Bit rate : 56.6 kb/s
Count of elements : 1247
Stream size : 17.3 MiB (0%)
Title : Commentary
Language : Dutch
Default : No
Forced : No

Text #15
ID : 18
Format : PGS
Codec ID : S_HDMV/PGS
Codec ID/Info : Picture based subtitle format used on BDs/HD-DVDs
Duration : 42 min 45 s
Bit rate : 60.1 kb/s
Count of elements : 1449
Stream size : 18.4 MiB (0%)
Title : Commentary
Language : French
Default : No
Forced : No

Menu
00:00:00.000 : en:Chapter 1
00:00:56.639 : en:Chapter 2
00:02:31.025 : en:Chapter 3
00:10:56.989 : en:Chapter 4
00:16:29.196 : en:Chapter 5
00:22:36.063 : en:Chapter 6
00:27:30.857 : en:Chapter 7
00:34:51.005 : en:Chapter 8
00:42:19.662 : en:Chapter 9





The Blacklist S07E19


The Blacklist S07E19


The Blacklist S07E19


The Blacklist S07E19


The Blacklist S07E19

All episodes