Index
# A B C D E F G H I J K L M N O P Q R S T U V W Y Z
Tags
Language
Tags

Featured TV Shows


The Blacklist S08E21

Posted By: Tavaz
1080p (FullHD) / BluRay Remux IMDb
The Blacklist S08E21

The Blacklist S08E21
BluRay Remux | MKV | 1920x1080 | English | H264 @ 24117 kbps | DTS | 42 min 57 s | 8.44 GiB
Subtitles: Français, English
Genre: Drama, Crime, Mystery


Raymond "Red" Reddington, one of the FBI's most wanted fugitives, surrenders in person at FBI Headquarters in Washington, D.C. He claims that he and the FBI have the same interests: bringing down dangerous criminals and terrorists. In the last two decades, he's made a list of criminals and terrorists that matter the most but the FBI cannot find because it does not know they exist. Reddington calls this "The Blacklist". Reddington will co-operate, but insists that he will speak only to Elizabeth Keen, a rookie FBI profiler.

The.Blacklist.S08E21.Nachalo.1080p.Blu-ray.Remux.AVC.DTS-HD.MA.5.1-SiCFoI.part1.rar (4.4 GB)
The.Blacklist.S08E21.Nachalo.1080p.Blu-ray.Remux.AVC.DTS-HD.MA.5.1-SiCFoI.part2.rar (4.1 GB)



General
Unique ID : 271369061701794029029173979462453197802 (0xCC27C7BA9BDE58FFEFAC87224A307BEA)
Complete name : ./The.Blacklist.S08E21.Nachalo.1080p.Blu-ray.Remux.AVC.DTS-HD.MA.5.1-SiCFoI.mkv
Format : Matroska
Format version : Version 4 / Version 2
File size : 8.44 GiB
Duration : 42 min 57 s
Overall bit rate mode : Variable
Overall bit rate : 28.1 Mb/s
Movie name : The.Blacklist.S08E21.Nachalo.1080p.Blu-ray.Remux.AVC.DTS-HD.MA.5.1-SiCFoI
Encoded date : UTC 2021-09-26 15:11:49
Writing application : mkvmerge v51.0.0 ('I Wish') 64-bit
Writing library : libebml v1.4.0 + libmatroska v1.6.2

Video
ID : 1
ID in the original source medium : 4113 (0x1011)
Format : AVC
Format/Info : Advanced Video Codec
Format profile : High@L4.1
Format settings : CABAC / 2 Ref Frames
Format settings, CABAC : Yes
Format settings, RefFrames : 2 frames
Codec ID : V_MPEG4/ISO/AVC
Duration : 42 min 57 s
Bit rate mode : Variable
Bit rate : 24.1 Mb/s
Maximum bit rate : 37.2 Mb/s
Width : 1 920 pixels
Height : 1 080 pixels
Display aspect ratio : 16:9
Frame rate mode : Constant
Frame rate : 23.976 (24000/1001) FPS
Color space : YUV
Chroma subsampling : 4:2:0
Bit depth : 8 bits
Scan type : Progressive
Bits/(Pixel*Frame) : 0.485
Stream size : 7.24 GiB (86%)
Title : The.Blacklist.S08E21.Nachalo.1080p.Blu-ray.Remux.AVC.DTS-HD.MA.5.1-SiCFoI
Default : Yes
Forced : No
Original source medium : Blu-ray

Audio
ID : 2
ID in the original source medium : 4352 (0x1100)
Format : DTS
Format/Info : Digital Theater Systems
Format profile : MA / Core
Mode : 16
Format settings, Endianness : Big
Codec ID : A_DTS
Duration : 42 min 57 s
Bit rate mode : Variable / Constant
Bit rate : 3 933 kb/s / 1 509 kb/s
Channel(s) : 6 channels
Channel positions : Front: L C R, Side: L R, LFE
Sampling rate : 48.0 kHz
Frame rate : 93.750 FPS (512 SPF)
Bit depth : 24 bits
Compression mode : Lossless / Lossy
Stream size : 1.18 GiB (14%)
Title : DTS-HD MA 5.1
Language : English
Default : Yes
Forced : No
Original source medium : Blu-ray

Text #1
ID : 3
Format : PGS
Muxing mode : zlib
Codec ID : S_HDMV/PGS
Codec ID/Info : Picture based subtitle format used on BDs/HD-DVDs
Duration : 15 min 41 s
Bit rate : 1 699 b/s
Count of elements : 18
Stream size : 195 KiB (0%)
Title : English (Forced)
Language : English
Default : Yes
Forced : Yes

Text #2
ID : 4
ID in the original source medium : 4608 (0x1200)
Format : PGS
Muxing mode : zlib
Codec ID : S_HDMV/PGS
Codec ID/Info : Picture based subtitle format used on BDs/HD-DVDs
Duration : 42 min 12 s
Bit rate : 43.2 kb/s
Count of elements : 1330
Stream size : 13.0 MiB (0%)
Title : English
Language : English
Default : No
Forced : No
Original source medium : Blu-ray

Text #3
ID : 5
ID in the original source medium : 4609 (0x1201)
Format : PGS
Muxing mode : zlib
Codec ID : S_HDMV/PGS
Codec ID/Info : Picture based subtitle format used on BDs/HD-DVDs
Duration : 42 min 21 s
Bit rate : 47.1 kb/s
Count of elements : 1448
Stream size : 14.3 MiB (0%)
Title : English (SDH)
Language : English
Default : No
Forced : No
Original source medium : Blu-ray

Text #4
ID : 6
ID in the original source medium : 4610 (0x1202)
Format : PGS
Muxing mode : zlib
Codec ID : S_HDMV/PGS
Codec ID/Info : Picture based subtitle format used on BDs/HD-DVDs
Duration : 42 min 51 s
Bit rate : 42.5 kb/s
Count of elements : 1620
Stream size : 13.0 MiB (0%)
Title : French
Language : French
Default : No
Forced : No
Original source medium : Blu-ray

Menu
00:00:00.000 : en:Chapter 01
00:10:10.735 : en:Chapter 02
00:18:34.154 : en:Chapter 03
00:30:09.182 : en:Chapter 04
00:36:18.843 : en:Chapter 05
00:42:19.370 : en:Chapter 06





The Blacklist S08E21


The Blacklist S08E21


The Blacklist S08E21


The Blacklist S08E21


The Blacklist S08E21

All episodes