Index
# A B C D E F G H I J K L M N O P Q R S T U V W Y Z
Tags
Language
Tags

Featured TV Shows


The Blacklist S08E22

Posted By:
1080p (FullHD) / BluRay Remux IMDb
The Blacklist S08E22

The Blacklist S08E22
BluRay Remux | MKV | 1920x1080 | English | H264 @ 23147 kbps | DTS | 43 min 22 s | 8.14 GiB
Subtitles: Français, English
Genre: Drama, Crime, Mystery


Raymond "Red" Reddington, one of the FBI's most wanted fugitives, surrenders in person at FBI Headquarters in Washington, D.C. He claims that he and the FBI have the same interests: bringing down dangerous criminals and terrorists. In the last two decades, he's made a list of criminals and terrorists that matter the most but the FBI cannot find because it does not know they exist. Reddington calls this "The Blacklist". Reddington will co-operate, but insists that he will speak only to Elizabeth Keen, a rookie FBI profiler.

The.Blacklist.S08E22.Konets.1080p.Blu-ray.Remux.AVC.DTS-HD.MA.5.1-SiCFoI.part1.rar (4.3 GB)
The.Blacklist.S08E22.Konets.1080p.Blu-ray.Remux.AVC.DTS-HD.MA.5.1-SiCFoI.part2.rar (4.0 GB)



General
Unique ID : 87399518141501720738654148943317932321 (0x41C088EFF3A6D927B852790591F19921)
Complete name : ./The.Blacklist.S08E22.Konets.1080p.Blu-ray.Remux.AVC.DTS-HD.MA.5.1-SiCFoI.mkv
Format : Matroska
Format version : Version 4 / Version 2
File size : 8.14 GiB
Duration : 43 min 22 s
Overall bit rate mode : Variable
Overall bit rate : 26.9 Mb/s
Movie name : The.Blacklist.S08E22.Konets.1080p.Blu-ray.Remux.AVC.DTS-HD.MA.5.1-SiCFoI
Encoded date : UTC 2021-09-26 15:07:22
Writing application : mkvmerge v51.0.0 ('I Wish') 64-bit
Writing library : libebml v1.4.0 + libmatroska v1.6.2

Video
ID : 1
ID in the original source medium : 4113 (0x1011)
Format : AVC
Format/Info : Advanced Video Codec
Format profile : High@L4.1
Format settings : CABAC / 2 Ref Frames
Format settings, CABAC : Yes
Format settings, RefFrames : 2 frames
Format settings, GOP : M=3, N=22
Codec ID : V_MPEG4/ISO/AVC
Duration : 43 min 22 s
Bit rate mode : Variable
Bit rate : 23.1 Mb/s
Maximum bit rate : 37.2 Mb/s
Width : 1 920 pixels
Height : 1 080 pixels
Display aspect ratio : 16:9
Frame rate mode : Constant
Frame rate : 23.976 (24000/1001) FPS
Color space : YUV
Chroma subsampling : 4:2:0
Bit depth : 8 bits
Scan type : Progressive
Bits/(Pixel*Frame) : 0.466
Stream size : 7.01 GiB (86%)
Title : The.Blacklist.S08E22.Konets.1080p.Blu-ray.Remux.AVC.DTS-HD.MA.5.1-SiCFoI
Default : Yes
Forced : No
Original source medium : Blu-ray

Audio
ID : 2
ID in the original source medium : 4352 (0x1100)
Format : DTS
Format/Info : Digital Theater Systems
Format profile : MA / Core
Mode : 16
Format settings, Endianness : Big
Codec ID : A_DTS
Duration : 43 min 22 s
Bit rate mode : Variable / Constant
Bit rate : 3 677 kb/s / 1 509 kb/s
Channel(s) : 6 channels
Channel positions : Front: L C R, Side: L R, LFE
Sampling rate : 48.0 kHz
Frame rate : 93.750 FPS (512 SPF)
Bit depth : 24 bits
Compression mode : Lossless / Lossy
Stream size : 1.11 GiB (14%)
Title : DTS-HD MA 5.1
Language : English
Default : Yes
Forced : No
Original source medium : Blu-ray

Text #1
ID : 3
ID in the original source medium : 4608 (0x1200)
Format : PGS
Muxing mode : zlib
Codec ID : S_HDMV/PGS
Codec ID/Info : Picture based subtitle format used on BDs/HD-DVDs
Duration : 41 min 28 s
Bit rate : 31.1 kb/s
Count of elements : 1042
Stream size : 9.22 MiB (0%)
Title : English
Language : English
Default : Yes
Forced : No
Original source medium : Blu-ray

Text #2
ID : 4
ID in the original source medium : 4609 (0x1201)
Format : PGS
Muxing mode : zlib
Codec ID : S_HDMV/PGS
Codec ID/Info : Picture based subtitle format used on BDs/HD-DVDs
Duration : 42 min 46 s
Bit rate : 34.7 kb/s
Count of elements : 1210
Stream size : 10.6 MiB (0%)
Title : English (SDH)
Language : English
Default : No
Forced : No
Original source medium : Blu-ray

Text #3
ID : 5
ID in the original source medium : 4610 (0x1202)
Format : PGS
Muxing mode : zlib
Codec ID : S_HDMV/PGS
Codec ID/Info : Picture based subtitle format used on BDs/HD-DVDs
Duration : 42 min 43 s
Bit rate : 28.2 kb/s
Count of elements : 1194
Stream size : 8.61 MiB (0%)
Title : French
Language : French
Default : No
Forced : No
Original source medium : Blu-ray

Menu
00:00:00.000 : en:Chapter 01
00:09:00.039 : en:Chapter 02
00:17:36.013 : en:Chapter 03
00:26:11.152 : en:Chapter 04
00:31:18.126 : en:Chapter 05
00:42:43.602 : en:Chapter 06





The Blacklist S08E22


The Blacklist S08E22


The Blacklist S08E22


The Blacklist S08E22


The Blacklist S08E22

All episodes