Featured TV Shows


The Capture S01E03

Posted By: Tavaz
720p (HD) / WEB-DL IMDb
The Capture S01E03

The Capture S01E03
WEB-DL | MKV | 1280x640 | English | H264 @ 3733 kbps | E-AC-3 @ 640 kbps | 58 min 44 s | 1.79 GiB
Subtitles: Français, English
Genre: Crime, Drama


When soldier Shaun Emery's conviction for a murder in Afghanistan is overturned due to flawed video evidence, he returns to life as a free man with his young daughter. But when damning CCTV footage from a night out in London comes to light, Shaun's life takes a shocking turn and he must soon fight for his freedom once again.

686e4910e762a00a1bfa2dff3813b206.mkv (1.8 GB)



General
Unique ID : 114146575501729652512176752679010742883 (0x55DFD4AE0CFF28012B0D98BD0E08B263)
Complete name : ./686e4910e762a00a1bfa2dff3813b206.mkv
Format : Matroska
Format version : Version 4 / Version 2
File size : 1.79 GiB
Duration : 58 min 44 s
Overall bit rate : 4 372 kb/s
Encoded date : UTC 2020-01-19 21:50:12
Writing application : mkvmerge v19.0.0 ('Brave Captain') 64-bit
Writing library : libebml v1.3.5 + libmatroska v1.4.8

Video
ID : 1
Format : AVC
Format/Info : Advanced Video Codec
Format profile : High@L3.1
Format settings : CABAC / 4 Ref Frames
Format settings, CABAC : Yes
Format settings, RefFrames : 4 frames
Codec ID : V_MPEG4/ISO/AVC
Duration : 58 min 41 s
Bit rate mode : Constant
Bit rate : 3 734 kb/s
Nominal bit rate : 6 000 kb/s
Width : 1 280 pixels
Height : 640 pixels
Display aspect ratio : 2.000
Frame rate mode : Constant
Frame rate : 25.000 FPS
Color space : YUV
Chroma subsampling : 4:2:0
Bit depth : 8 bits
Scan type : Progressive
Bits/(Pixel*Frame) : 0.182
Stream size : 1.53 GiB (85%)
Default : Yes
Forced : No
Color range : Limited
Color primaries : BT.709
Transfer characteristics : BT.709
Matrix coefficients : BT.709

Audio
ID : 2
Format : E-AC-3
Format/Info : Enhanced Audio Coding 3
Format settings, Endianness : Big
Codec ID : A_EAC3
Duration : 58 min 41 s
Bit rate mode : Constant
Bit rate : 640 kb/s
Channel(s) : 6 channels
Channel positions : Front: L C R, Side: L R, LFE
Sampling rate : 48.0 kHz
Frame rate : 187.500 FPS (256 SPF)
Compression mode : Lossy
Stream size : 269 MiB (15%)
Language : English
Service kind : Complete Main
Default : Yes
Forced : No

Text #1
ID : 3
Format : UTF-8
Codec ID : S_TEXT/UTF8
Codec ID/Info : UTF-8 Plain Text
Duration : 58 min 8 s
Bit rate : 62 b/s
Count of elements : 793
Stream size : 26.7 KiB (0%)
Title : SDH
Language : English
Default : No
Forced : No

Text #2
ID : 4
Format : UTF-8
Codec ID : S_TEXT/UTF8
Codec ID/Info : UTF-8 Plain Text
Duration : 58 min 44 s
Bit rate : 56 b/s
Count of elements : 637
Stream size : 24.1 KiB (0%)
Language : French
Default : No
Forced : No





The Capture S01E03


The Capture S01E03


The Capture S01E03


The Capture S01E03


The Capture S01E03

All episodes