Featured TV Shows


The Capture S01E05

Posted By: Tavaz
720p (HD) / WEB-DL IMDb
The Capture S01E05

The Capture S01E05
WEB-DL | MKV | 1280x640 | English | H264 @ 3928 kbps | E-AC-3 @ 640 kbps | 59 min 36 s | 1.90 GiB
Subtitles: Français, English
Genre: Crime, Drama


When soldier Shaun Emery's conviction for a murder in Afghanistan is overturned due to flawed video evidence, he returns to life as a free man with his young daughter. But when damning CCTV footage from a night out in London comes to light, Shaun's life takes a shocking turn and he must soon fight for his freedom once again.

10f09cdecb8d83cf8a5a7f0f105bac91.mkv (1.9 GB)



General
Unique ID : 269585902484487596994794245822387739923 (0xCAD05B31198B3C5E8BFB70D3B18A5D13)
Complete name : ./10f09cdecb8d83cf8a5a7f0f105bac91.mkv
Format : Matroska
Format version : Version 4 / Version 2
File size : 1.90 GiB
Duration : 59 min 36 s
Overall bit rate : 4 566 kb/s
Encoded date : UTC 2020-01-19 21:57:20
Writing application : mkvmerge v19.0.0 ('Brave Captain') 64-bit
Writing library : libebml v1.3.5 + libmatroska v1.4.8

Video
ID : 1
Format : AVC
Format/Info : Advanced Video Codec
Format profile : High@L3.1
Format settings : CABAC / 4 Ref Frames
Format settings, CABAC : Yes
Format settings, RefFrames : 4 frames
Codec ID : V_MPEG4/ISO/AVC
Duration : 59 min 33 s
Bit rate mode : Constant
Bit rate : 3 928 kb/s
Nominal bit rate : 6 000 kb/s
Width : 1 280 pixels
Height : 640 pixels
Display aspect ratio : 2.000
Frame rate mode : Constant
Frame rate : 25.000 FPS
Color space : YUV
Chroma subsampling : 4:2:0
Bit depth : 8 bits
Scan type : Progressive
Bits/(Pixel*Frame) : 0.192
Stream size : 1.63 GiB (86%)
Default : Yes
Forced : No
Color range : Limited
Color primaries : BT.709
Transfer characteristics : BT.709
Matrix coefficients : BT.709

Audio
ID : 2
Format : E-AC-3
Format/Info : Enhanced Audio Coding 3
Format settings, Endianness : Big
Codec ID : A_EAC3
Duration : 59 min 33 s
Bit rate mode : Constant
Bit rate : 640 kb/s
Channel(s) : 6 channels
Channel positions : Front: L C R, Side: L R, LFE
Sampling rate : 48.0 kHz
Frame rate : 187.500 FPS (256 SPF)
Compression mode : Lossy
Stream size : 273 MiB (14%)
Language : English
Service kind : Complete Main
Default : Yes
Forced : No

Text #1
ID : 3
Format : UTF-8
Codec ID : S_TEXT/UTF8
Codec ID/Info : UTF-8 Plain Text
Duration : 22 s 816 ms
Bit rate : 40 b/s
Count of elements : 6
Stream size : 116 Bytes (0%)
Title : Forced
Language : English
Default : Yes
Forced : Yes

Text #2
ID : 4
Format : UTF-8
Codec ID : S_TEXT/UTF8
Codec ID/Info : UTF-8 Plain Text
Duration : 59 min 0 s
Bit rate : 65 b/s
Count of elements : 880
Stream size : 28.3 KiB (0%)
Title : SDH
Language : English
Default : No
Forced : No

Text #3
ID : 5
Format : UTF-8
Codec ID : S_TEXT/UTF8
Codec ID/Info : UTF-8 Plain Text
Duration : 59 min 36 s
Bit rate : 57 b/s
Count of elements : 689
Stream size : 25.0 KiB (0%)
Language : French
Default : No
Forced : No





The Capture S01E05


The Capture S01E05


The Capture S01E05


The Capture S01E05


The Capture S01E05

All episodes