Featured TV Shows


The Capture S01E06

Posted By: Tavaz
1080p (FullHD) / WEB-DL IMDb
The Capture S01E06

The Capture S01E06
WEB-DL | MKV | 1920x960 | English | H264 @ 8206 kbps | E-AC-3 @ 640 kbps | 59 min 32 s | 3.68 GiB
Subtitles: Français, English
Genre: Crime, Drama


When soldier Shaun Emery's conviction for a murder in Afghanistan is overturned due to flawed video evidence, he returns to life as a free man with his young daughter. But when damning CCTV footage from a night out in London comes to light, Shaun's life takes a shocking turn and he must soon fight for his freedom once again.

38ed6d9d1bdc40bbb42ee7728990b3ab.mkv (3.7 GB)



General
Unique ID : 80396889192538774364757204192516100834 (0x3C7BE0AC90EA1D29318CE0E7394BD2E2)
Complete name : ./38ed6d9d1bdc40bbb42ee7728990b3ab.mkv
Format : Matroska
Format version : Version 4 / Version 2
File size : 3.68 GiB
Duration : 59 min 32 s
Overall bit rate : 8 847 kb/s
Encoded date : UTC 2020-01-19 21:59:49
Writing application : mkvmerge v19.0.0 ('Brave Captain') 64-bit
Writing library : libebml v1.3.5 + libmatroska v1.4.8

Video
ID : 1
Format : AVC
Format/Info : Advanced Video Codec
Format profile : High@L4
Format settings : CABAC / 4 Ref Frames
Format settings, CABAC : Yes
Format settings, RefFrames : 4 frames
Codec ID : V_MPEG4/ISO/AVC
Duration : 59 min 31 s
Bit rate mode : Constant
Bit rate : 8 206 kb/s
Nominal bit rate : 10 000 kb/s
Width : 1 920 pixels
Height : 960 pixels
Display aspect ratio : 2.000
Frame rate mode : Constant
Frame rate : 25.000 FPS
Color space : YUV
Chroma subsampling : 4:2:0
Bit depth : 8 bits
Scan type : Progressive
Bits/(Pixel*Frame) : 0.178
Stream size : 3.41 GiB (93%)
Default : Yes
Forced : No
Color range : Limited
Color primaries : BT.709
Transfer characteristics : BT.709
Matrix coefficients : BT.709

Audio
ID : 2
Format : E-AC-3
Format/Info : Enhanced Audio Coding 3
Format settings, Endianness : Big
Codec ID : A_EAC3
Duration : 59 min 31 s
Bit rate mode : Constant
Bit rate : 640 kb/s
Channel(s) : 6 channels
Channel positions : Front: L C R, Side: L R, LFE
Sampling rate : 48.0 kHz
Frame rate : 187.500 FPS (256 SPF)
Compression mode : Lossy
Stream size : 273 MiB (7%)
Language : English
Service kind : Complete Main
Default : Yes
Forced : No

Text #1
ID : 3
Format : UTF-8
Codec ID : S_TEXT/UTF8
Codec ID/Info : UTF-8 Plain Text
Duration : 58 min 58 s
Bit rate : 57 b/s
Count of elements : 783
Stream size : 24.7 KiB (0%)
Title : SDH
Language : English
Default : No
Forced : No

Text #2
ID : 4
Format : UTF-8
Codec ID : S_TEXT/UTF8
Codec ID/Info : UTF-8 Plain Text
Duration : 59 min 32 s
Bit rate : 53 b/s
Count of elements : 652
Stream size : 23.4 KiB (0%)
Language : French
Default : No
Forced : No





The Capture S01E06


The Capture S01E06


The Capture S01E06


The Capture S01E06


The Capture S01E06

All episodes