Featured TV Shows


The Dangerous Book for Boys S01E02

Posted By: Tavaz
1080p (FullHD) / WEBRip IMDb
The Dangerous Book for Boys S01E02

The Dangerous Book for Boys S01E02
WEBRip | MKV | 1920x1080 | English | H264 @ 8584 kbps | E-AC-3 @ 640 kbps | 28 min 33 s | 1.84 GiB
Subtitles: English
Genre: Comedy, Drama

The story of a middle-class family coping with the sudden passing of their beloved patriarch Patrick, a whimsical inventor who touched the lives of all who knew him. Devastated, his family finds hope in a guide book he created for his sons.

3daeec755f864762a2da678b6bfbf5b1.mkv (1.8 GB)



General
Unique ID : 141072981089011081345836300572012874527 (0x6A21AAF90691E01E3ABCA35251AC8B1F)
Complete name : ./3daeec755f864762a2da678b6bfbf5b1.mkv
Format : Matroska
Format version : Version 4 / Version 2
File size : 1.84 GiB
Duration : 28 min 33 s
Overall bit rate mode : Variable
Overall bit rate : 9 226 kb/s
Encoded date : UTC 2018-11-01 10:21:31
Writing application : mkvmerge v9.8.0 ('Kuglblids') 64bit
Writing library : libebml v1.3.4 + libmatroska v1.4.5

Video
ID : 1
Format : AVC
Format/Info : Advanced Video Codec
Format profile : High@L4
Format settings : CABAC / 4 Ref Frames
Format settings, CABAC : Yes
Format settings, RefFrames : 4 frames
Codec ID : V_MPEG4/ISO/AVC
Duration : 28 min 33 s
Bit rate mode : Variable
Bit rate : 8 584 kb/s
Maximum bit rate : 15.0 Mb/s
Width : 1 920 pixels
Height : 1 080 pixels
Display aspect ratio : 16:9
Frame rate mode : Constant
Frame rate : 23.976 (24000/1001) FPS
Color space : YUV
Chroma subsampling : 4:2:0
Bit depth : 8 bits
Scan type : Progressive
Bits/(Pixel*Frame) : 0.173
Stream size : 1.71 GiB (93%)
Default : Yes
Forced : No
Color range : Limited
Color primaries : BT.709
Transfer characteristics : BT.709
Matrix coefficients : BT.709

Audio
ID : 2
Format : E-AC-3
Format/Info : Enhanced Audio Coding 3
Format settings, Endianness : Big
Codec ID : A_EAC3
Duration : 28 min 33 s
Bit rate mode : Constant
Bit rate : 640 kb/s
Channel(s) : 6 channels
Channel positions : Front: L C R, Side: L R, LFE
Sampling rate : 48.0 kHz
Frame rate : 187.500 FPS (256 SPF)
Compression mode : Lossy
Stream size : 131 MiB (7%)
Title : English
Language : English
Service kind : Complete Main
Default : Yes
Forced : No

Text
ID : 3
Format : UTF-8
Codec ID : S_TEXT/UTF8
Codec ID/Info : UTF-8 Plain Text
Duration : 26 min 35 s
Bit rate : 83 b/s
Count of elements : 579
Stream size : 16.3 KiB (0%)
Title : English [SDH]
Language : English
Default : No
Forced : No

Menu
00:00:00.000 : en:Szene 1
00:00:05.000 : en:Szene 2
00:01:27.000 : en:Vorspann
00:02:07.000 : en:Szene 4
00:05:20.000 : en:Szene 5
00:09:27.000 : en:Szene 6
00:11:11.000 : en:Szene 7
00:13:44.000 : en:Szene 8
00:17:12.000 : en:Szene 9
00:23:22.000 : en:Szene 10
00:26:47.000 : en:Abspann





The Dangerous Book for Boys S01E02


The Dangerous Book for Boys S01E02


The Dangerous Book for Boys S01E02


The Dangerous Book for Boys S01E02


The Dangerous Book for Boys S01E02

All episodes