Featured TV Shows


The Dangerous Book for Boys S01E03

Posted By: Tavaz
1080p (FullHD) / WEBRip IMDb
The Dangerous Book for Boys S01E03

The Dangerous Book for Boys S01E03
WEBRip | MKV | 1920x1080 | English | H264 @ 6841 kbps | E-AC-3 @ 640 kbps | 24 min 58 s | 1.31 GiB
Subtitles: English
Genre: Comedy, Drama

The story of a middle-class family coping with the sudden passing of their beloved patriarch Patrick, a whimsical inventor who touched the lives of all who knew him. Devastated, his family finds hope in a guide book he created for his sons.

0e822db2c74445bc91fc2073023f78ad.mkv (1.3 GB)



General
Unique ID : 213147915645524609022036543787873611620 (0xA05ACB9AE9E21E0A531776B3782C2F64)
Complete name : ./0e822db2c74445bc91fc2073023f78ad.mkv
Format : Matroska
Format version : Version 4 / Version 2
File size : 1.31 GiB
Duration : 24 min 58 s
Overall bit rate mode : Variable
Overall bit rate : 7 484 kb/s
Encoded date : UTC 2018-11-01 10:21:47
Writing application : mkvmerge v9.8.0 ('Kuglblids') 64bit
Writing library : libebml v1.3.4 + libmatroska v1.4.5

Video
ID : 1
Format : AVC
Format/Info : Advanced Video Codec
Format profile : High@L4
Format settings : CABAC / 4 Ref Frames
Format settings, CABAC : Yes
Format settings, RefFrames : 4 frames
Codec ID : V_MPEG4/ISO/AVC
Duration : 24 min 58 s
Bit rate mode : Variable
Bit rate : 6 842 kb/s
Maximum bit rate : 15.0 Mb/s
Width : 1 920 pixels
Height : 1 080 pixels
Display aspect ratio : 16:9
Frame rate mode : Constant
Frame rate : 23.976 (24000/1001) FPS
Color space : YUV
Chroma subsampling : 4:2:0
Bit depth : 8 bits
Scan type : Progressive
Bits/(Pixel*Frame) : 0.138
Stream size : 1.19 GiB (91%)
Default : Yes
Forced : No
Color range : Limited
Color primaries : BT.709
Transfer characteristics : BT.709
Matrix coefficients : BT.709

Audio
ID : 2
Format : E-AC-3
Format/Info : Enhanced Audio Coding 3
Format settings, Endianness : Big
Codec ID : A_EAC3
Duration : 24 min 58 s
Bit rate mode : Constant
Bit rate : 640 kb/s
Channel(s) : 6 channels
Channel positions : Front: L C R, Side: L R, LFE
Sampling rate : 48.0 kHz
Frame rate : 187.500 FPS (256 SPF)
Compression mode : Lossy
Stream size : 114 MiB (9%)
Title : English
Language : English
Service kind : Complete Main
Default : Yes
Forced : No

Text
ID : 3
Format : UTF-8
Codec ID : S_TEXT/UTF8
Codec ID/Info : UTF-8 Plain Text
Duration : 23 min 6 s
Bit rate : 91 b/s
Count of elements : 513
Stream size : 15.4 KiB (0%)
Title : English [SDH]
Language : English
Default : No
Forced : No

Menu
00:00:00.000 : en:Szene 1
00:00:05.000 : en:Szene 2
00:01:46.000 : en:Vorspann
00:02:26.000 : en:Szene 4
00:07:46.000 : en:Szene 5
00:11:20.000 : en:Szene 6
00:15:43.000 : en:Szene 7
00:19:23.000 : en:Szene 8
00:23:13.000 : en:Abspann





The Dangerous Book for Boys S01E03


The Dangerous Book for Boys S01E03


The Dangerous Book for Boys S01E03


The Dangerous Book for Boys S01E03


The Dangerous Book for Boys S01E03

All episodes