Featured TV Shows


The Dangerous Book for Boys S01E03

Posted By: Tavaz
1080p (FullHD) / WEBRip IMDb
The Dangerous Book for Boys S01E03

The Dangerous Book for Boys S01E03
WEBRip | MKV | 1920x1080 | French / English | H264 @ 7302 kbps | E-AC-3 @ 640 kbps | 24 min 50 s | 1.49 GiB
Subtitles: French
Genre: Comedy, Drama

The story of a middle-class family coping with the sudden passing of their beloved patriarch Patrick, a whimsical inventor who touched the lives of all who knew him. Devastated, his family finds hope in a guide book he created for his sons.

52ecfecf291943f4ab29cf982126e4f8.mkv (1.5 GB)



General
Unique ID : 184133105853334638144120264553258729641 (0x8A86BF0908ACD4E4E6FFF9E7A90EC0A9)
Complete name : ./52ecfecf291943f4ab29cf982126e4f8.mkv
Format : Matroska
Format version : Version 4 / Version 2
File size : 1.49 GiB
Duration : 24 min 50 s
Overall bit rate mode : Variable
Overall bit rate : 8 585 kb/s
Encoded date : UTC 2019-01-10 08:05:45
Writing application : mkvmerge v25.0.0 ('Prog Noir') 64-bit
Writing library : libebml v1.3.6 + libmatroska v1.4.9

Video
ID : 1
Format : AVC
Format/Info : Advanced Video Codec
Format profile : High@L4
Format settings : CABAC / 4 Ref Frames
Format settings, CABAC : Yes
Format settings, RefFrames : 4 frames
Codec ID : V_MPEG4/ISO/AVC
Duration : 24 min 50 s
Bit rate mode : Variable
Bit rate : 7 303 kb/s
Maximum bit rate : 15.0 Mb/s
Width : 1 920 pixels
Height : 1 080 pixels
Display aspect ratio : 16:9
Frame rate mode : Constant
Frame rate : 23.976 (24000/1001) FPS
Color space : YUV
Chroma subsampling : 4:2:0
Bit depth : 8 bits
Scan type : Progressive
Bits/(Pixel*Frame) : 0.147
Stream size : 1.27 GiB (85%)
Default : Yes
Forced : No
Color range : Limited
Color primaries : BT.709
Transfer characteristics : BT.709
Matrix coefficients : BT.709

Audio #1
ID : 2
Format : E-AC-3
Format/Info : Enhanced Audio Coding 3
Format settings, Endianness : Big
Codec ID : A_EAC3
Duration : 24 min 50 s
Bit rate mode : Constant
Bit rate : 640 kb/s
Channel(s) : 6 channels
Channel positions : Front: L C R, Side: L R, LFE
Sampling rate : 48.0 kHz
Frame rate : 187.500 FPS (256 SPF)
Compression mode : Lossy
Stream size : 114 MiB (7%)
Title : French
Language : French
Service kind : Complete Main
Default : Yes
Forced : No

Audio #2
ID : 3
Format : E-AC-3
Format/Info : Enhanced Audio Coding 3
Format settings, Endianness : Big
Codec ID : A_EAC3
Duration : 24 min 50 s
Bit rate mode : Constant
Bit rate : 640 kb/s
Channel(s) : 6 channels
Channel positions : Front: L C R, Side: L R, LFE
Sampling rate : 48.0 kHz
Frame rate : 187.500 FPS (256 SPF)
Compression mode : Lossy
Stream size : 114 MiB (7%)
Title : English
Language : English
Service kind : Complete Main
Default : No
Forced : No

Text #1
ID : 4
Format : UTF-8
Codec ID : S_TEXT/UTF8
Codec ID/Info : UTF-8 Plain Text
Duration : 4 min 19 s
Bit rate : 1 b/s
Count of elements : 2
Stream size : 53.0 Bytes (0%)
Title : Forced
Language : French
Default : Yes
Forced : Yes

Text #2
ID : 5
Format : UTF-8
Codec ID : S_TEXT/UTF8
Codec ID/Info : UTF-8 Plain Text
Duration : 23 min 3 s
Bit rate : 83 b/s
Count of elements : 390
Stream size : 14.0 KiB (0%)
Title : French
Language : French
Default : No
Forced : No

Menu
00:00:00.000 : en:Amazon Original
00:00:05.000 : en:Bon Voyage
00:01:46.000 : en:Opening Credits
00:02:26.000 : en:Wyatt and his brother get into trouble at school
00:07:46.000 : en:Wyatt goes to a doctor's appointment
00:11:20.000 : en:Beth is worried about Wyatt
00:15:43.000 : en:Wyatt has a challenging problem to solve
00:19:23.000 : en:It's okay to be sad
00:23:13.000 : en:End Credits





The Dangerous Book for Boys S01E03


The Dangerous Book for Boys S01E03


The Dangerous Book for Boys S01E03


The Dangerous Book for Boys S01E03


The Dangerous Book for Boys S01E03

All episodes