Featured TV Shows


The Dangerous Book for Boys S01E04

Posted By: Tavaz
1080p (FullHD) / WEBRip IMDb
The Dangerous Book for Boys S01E04

The Dangerous Book for Boys S01E04
WEBRip | MKV | 1920x1080 | French / English | H264 @ 7185 kbps | E-AC-3 @ 640 kbps | 26 min 44 s | 1.58 GiB
Subtitles: French, English
Genre: Comedy, Drama

The story of a middle-class family coping with the sudden passing of their beloved patriarch Patrick, a whimsical inventor who touched the lives of all who knew him. Devastated, his family finds hope in a guide book he created for his sons.

683e828681e946058f4d28bf21758232.mkv (1.6 GB)



General
Unique ID : 47508160855628513113559079596516262646 (0x23BDBD2C7282909A7D6AAF481D4942F6)
Complete name : ./683e828681e946058f4d28bf21758232.mkv
Format : Matroska
Format version : Version 4 / Version 2
File size : 1.58 GiB
Duration : 26 min 44 s
Overall bit rate mode : Variable
Overall bit rate : 8 469 kb/s
Encoded date : UTC 2019-01-10 08:05:57
Writing application : mkvmerge v25.0.0 ('Prog Noir') 64-bit
Writing library : libebml v1.3.6 + libmatroska v1.4.9

Video
ID : 1
Format : AVC
Format/Info : Advanced Video Codec
Format profile : High@L4
Format settings : CABAC / 4 Ref Frames
Format settings, CABAC : Yes
Format settings, RefFrames : 4 frames
Codec ID : V_MPEG4/ISO/AVC
Duration : 26 min 44 s
Bit rate mode : Variable
Bit rate : 7 186 kb/s
Maximum bit rate : 15.0 Mb/s
Width : 1 920 pixels
Height : 1 080 pixels
Display aspect ratio : 16:9
Frame rate mode : Constant
Frame rate : 23.976 (24000/1001) FPS
Color space : YUV
Chroma subsampling : 4:2:0
Bit depth : 8 bits
Scan type : Progressive
Bits/(Pixel*Frame) : 0.145
Stream size : 1.34 GiB (85%)
Default : Yes
Forced : No
Color range : Limited
Color primaries : BT.709
Transfer characteristics : BT.709
Matrix coefficients : BT.709

Audio #1
ID : 2
Format : E-AC-3
Format/Info : Enhanced Audio Coding 3
Format settings, Endianness : Big
Codec ID : A_EAC3
Duration : 26 min 44 s
Bit rate mode : Constant
Bit rate : 640 kb/s
Channel(s) : 6 channels
Channel positions : Front: L C R, Side: L R, LFE
Sampling rate : 48.0 kHz
Frame rate : 187.500 FPS (256 SPF)
Compression mode : Lossy
Stream size : 122 MiB (8%)
Title : French
Language : French
Service kind : Complete Main
Default : Yes
Forced : No

Audio #2
ID : 3
Format : E-AC-3
Format/Info : Enhanced Audio Coding 3
Format settings, Endianness : Big
Codec ID : A_EAC3
Duration : 26 min 44 s
Bit rate mode : Constant
Bit rate : 640 kb/s
Channel(s) : 6 channels
Channel positions : Front: L C R, Side: L R, LFE
Sampling rate : 48.0 kHz
Frame rate : 187.500 FPS (256 SPF)
Compression mode : Lossy
Stream size : 122 MiB (8%)
Title : English
Language : English
Service kind : Complete Main
Default : No
Forced : No

Text #1
ID : 4
Format : UTF-8
Codec ID : S_TEXT/UTF8
Codec ID/Info : UTF-8 Plain Text
Duration : 11 min 32 s
Bit rate : 0 b/s
Count of elements : 4
Stream size : 72.0 Bytes (0%)
Title : Forced
Language : French
Default : Yes
Forced : Yes

Text #2
ID : 5
Format : UTF-8
Codec ID : S_TEXT/UTF8
Codec ID/Info : UTF-8 Plain Text
Duration : 24 min 57 s
Bit rate : 87 b/s
Count of elements : 414
Stream size : 16.0 KiB (0%)
Title : French
Language : French
Default : No
Forced : No

Text #3
ID : 6
Format : UTF-8
Codec ID : S_TEXT/UTF8
Codec ID/Info : UTF-8 Plain Text
Duration : 26 min 20 s
Bit rate : 87 b/s
Count of elements : 571
Stream size : 16.9 KiB (0%)
Title : English (SDH)
Language : English
Default : No
Forced : No

Menu
00:00:00.000 : en:Amazon Studios
00:00:05.000 : en:Beth asks for Tiffany's help
00:01:25.000 : en:Opening Credits
00:02:05.000 : en:Wyatt comes up with an idea to help his family
00:05:00.000 : en:Business is war
00:09:21.000 : en:Wyatt and his brother have a new plan to save the business
00:13:59.000 : en:A little help from grandma
00:19:03.000 : en:Uncle Terry and Wyatt find another invention
00:23:23.000 : en:Wyatt and Liam find out about Dash's secret
00:25:08.000 : en:End Credits





The Dangerous Book for Boys S01E04


The Dangerous Book for Boys S01E04


The Dangerous Book for Boys S01E04


The Dangerous Book for Boys S01E04


The Dangerous Book for Boys S01E04

All episodes