Featured TV Shows


The Detour S03E02

Posted By: Tavaz
720p (HD) / WEB-DL IMDb
The Detour S03E02

The Detour S03E02
WEB-DL | MKV | 1280x720 | English | H264 @ 3490 kbps | E-AC-3 @ 640 kbps | 21 min 11 s | 626 MiB
Subtitles: English
Genre: Comedy

A what-in-the-living-hell-is-wrong-with-this-family comedy created by comic super-couple Jason Jones & Samantha Bee and inspired by their own experiences with family trips. Unfiltered dad Nate hits the road with wife Robin and kids Delilah and Jared. Every leg of their trip is fraught with disaster as they encounter one hellish turn after another. If there's trouble on the road, this family will find it and plow into it.

d83c8c2509f2420998db100882dc7906.mkv (626.2 MB)



General
Unique ID : 42758546042822619579076803979762429690 (0x202AFF15657ADA1AB17F656E751F6EFA)
Complete name : ./d83c8c2509f2420998db100882dc7906.mkv
Format : Matroska
Format version : Version 4 / Version 2
File size : 626 MiB
Duration : 21 min 11 s
Overall bit rate mode : Variable
Overall bit rate : 4 133 kb/s
Encoded date : UTC 2018-01-31 20:32:31
Writing application : mkvmerge v20.0.0 ('I Am The Sun') 64-bit
Writing library : libebml v1.3.5 + libmatroska v1.4.8

Video
ID : 1
Format : AVC
Format/Info : Advanced Video Codec
Format profile : High@L3.1
Format settings : CABAC / 5 Ref Frames
Format settings, CABAC : Yes
Format settings, RefFrames : 5 frames
Codec ID : V_MPEG4/ISO/AVC
Duration : 21 min 11 s
Bit rate mode : Variable
Bit rate : 3 491 kb/s
Maximum bit rate : 4 500 kb/s
Width : 1 280 pixels
Height : 720 pixels
Display aspect ratio : 16:9
Frame rate mode : Constant
Frame rate : 23.976 (24000/1001) FPS
Color space : YUV
Chroma subsampling : 4:2:0
Bit depth : 8 bits
Scan type : Progressive
Bits/(Pixel*Frame) : 0.158
Stream size : 529 MiB (84%)
Default : Yes
Forced : No
Color range : Limited
Color primaries : BT.709
Transfer characteristics : BT.709
Matrix coefficients : BT.709

Audio
ID : 2
Format : E-AC-3
Format/Info : Enhanced Audio Coding 3
Format settings, Endianness : Big
Codec ID : A_EAC3
Duration : 21 min 10 s
Bit rate mode : Constant
Bit rate : 640 kb/s
Channel(s) : 6 channels
Channel positions : Front: L C R, Side: L R, LFE
Sampling rate : 48.0 kHz
Frame rate : 187.500 FPS (256 SPF)
Compression mode : Lossy
Stream size : 97.0 MiB (15%)
Language : English
Service kind : Complete Main
Default : Yes
Forced : No

Text
ID : 3
Format : UTF-8
Codec ID : S_TEXT/UTF8
Codec ID/Info : UTF-8 Plain Text
Duration : 20 min 59 s
Bit rate : 102 b/s
Count of elements : 517
Stream size : 15.8 KiB (0%)
Language : English
Default : No
Forced : No





The Detour S03E02


The Detour S03E02


The Detour S03E02


The Detour S03E02


The Detour S03E02

All episodes