Featured TV Shows


The Expanse S03E08

Posted By: Tavaz
SD / BDRip IMDb
The Expanse S03E08

The Expanse S03E08
BDRip | MKV | 1024x576 | English | H264 @ 2124 kbps | AC-3 @ 448 kbps | 43 min 10 s | 809 MiB
Subtitles: English
Genre: Dramma, Mistero

Nel XXIII secolo, il sistema solare è stato colonizzato dagli umani e si trova una situazione di precario equilibrio geopolitico a causa delle tensioni fra la Terra e le ex-colonie marziane, oramai indipendenti sotto il vessillo della Repubblica congressionale marziana, e il degrado sociale in cui sopravvive gran parte della popolazione degli avamposti nella fascia principale degli asteroidi e i pianeti esterni.

In questo difficile contesto, si intrecciano le vicende del detective di polizia Josephus Miller, di stanza su Cerere, a cui viene affidata l'indagine sulla scomparsa di una donna terrestre, Julie Andromeda Mao, e il secondo ufficiale del cargo portaghiaccio Canterbury, James Holden, inavvertitamente coinvolto in un incidente che rischia di destabilizzare irreversibilmente le relazioni tra Marte e la Terra e innescare un conflitto interplanetario.

02624bf1b0c644deb1de0db96908e2a1.mkv (808.6 MB)



General
Unique ID : 210595944293926134003032148784766515707 (0x9E6F4DB406791CE19DEDBD3FA3E3F9FB)
Complete name : ./02624bf1b0c644deb1de0db96908e2a1.mkv
Format : Matroska
Format version : Version 2
File size : 809 MiB
Duration : 43 min 10 s
Overall bit rate : 2 619 kb/s
Encoded date : UTC 2018-08-13 18:56:06
Writing application : mkvmerge v24.0.0 ('Beyond The Pale') 64-bit
Writing library : libebml v1.3.6 + libmatroska v1.4.9

Video
ID : 1
Format : AVC
Format/Info : Advanced Video Codec
Format profile : High@L4.1
Format settings : CABAC / 9 Ref Frames
Format settings, CABAC : Yes
Format settings, RefFrames : 9 frames
Codec ID : V_MPEG4/ISO/AVC
Duration : 43 min 10 s
Bit rate : 2 124 kb/s
Width : 1 024 pixels
Height : 576 pixels
Display aspect ratio : 16:9
Frame rate mode : Constant
Frame rate : 23.976 (24000/1001) FPS
Color space : YUV
Chroma subsampling : 4:2:0
Bit depth : 8 bits
Scan type : Progressive
Bits/(Pixel*Frame) : 0.150
Stream size : 656 MiB (81%)
Writing library : x264 core 155 r2901 7d0ff22
Encoding settings : cabac=1 / ref=9 / deblock=1:-3:-3 / analyse=0x3:0x133 / me=umh / subme=10 / psy=1 / psy_rd=1.00:0.15 / mixed_ref=1 / me_range=32 / chroma_me=1 / trellis=2 / 8x8dct=1 / cqm=0 / deadzone=21,11 / fast_pskip=0 / chroma_qp_offset=-3 / threads=12 / lookahead_threads=2 / sliced_threads=0 / nr=0 / decimate=0 / interlaced=0 / bluray_compat=0 / constrained_intra=0 / bframes=8 / b_pyramid=2 / b_adapt=2 / b_bias=0 / direct=3 / weightb=1 / open_gop=0 / weightp=2 / keyint=250 / keyint_min=23 / scenecut=40 / intra_refresh=0 / rc_lookahead=60 / rc=crf / mbtree=0 / crf=17.8 / qcomp=0.65 / qpmin=0 / qpmax=69 / qpstep=4 / vbv_maxrate=30000 / vbv_bufsize=40000 / crf_max=0.0 / nal_hrd=none / filler=0 / ip_ratio=1.40 / pb_ratio=1.30 / aq=3:0.80
Default : Yes
Forced : No

Audio
ID : 2
Format : AC-3
Format/Info : Audio Coding 3
Format settings, Endianness : Big
Codec ID : A_AC3
Duration : 43 min 10 s
Bit rate mode : Constant
Bit rate : 448 kb/s
Channel(s) : 6 channels
Channel positions : Front: L C R, Side: L R, LFE
Sampling rate : 48.0 kHz
Frame rate : 31.250 FPS (1536 SPF)
Bit depth : 16 bits
Compression mode : Lossy
Stream size : 138 MiB (17%)
Language : English
Service kind : Complete Main
Default : Yes
Forced : No

Text
ID : 3
Format : PGS
Codec ID : S_HDMV/PGS
Codec ID/Info : Picture based subtitle format used on BDs/HD-DVDs
Duration : 41 min 27 s
Bit rate : 46.1 kb/s
Count of elements : 1280
Stream size : 13.7 MiB (2%)
Title : SDH
Language : English
Default : No
Forced : No

Menu
00:00:00.000 : en:Chapter 1
00:02:29.107 : en:Chapter 2
00:17:47.817 : en:Chapter 3
00:30:42.841 : en:Chapter 4





The Expanse S03E08


The Expanse S03E08


The Expanse S03E08


The Expanse S03E08


The Expanse S03E08

All episodes