Featured TV Shows


The Expanse S03E08

Posted By: Tavaz
1080p (FullHD) / WEB-DL IMDb
The Expanse S03E08

The Expanse S03E08
WEB-DL | MKV | 1920x1080 | English | H264 @ 6313 kbps | E-AC-3 @ 640 kbps | 43 min 11 s | 2.10 GiB
Subtitles: English
Genre: Dramma, Mistero

Nel XXIII secolo, il sistema solare è stato colonizzato dagli umani e si trova una situazione di precario equilibrio geopolitico a causa delle tensioni fra la Terra e le ex-colonie marziane, oramai indipendenti sotto il vessillo della Repubblica congressionale marziana, e il degrado sociale in cui sopravvive gran parte della popolazione degli avamposti nella fascia principale degli asteroidi e i pianeti esterni.

In questo difficile contesto, si intrecciano le vicende del detective di polizia Josephus Miller, di stanza su Cerere, a cui viene affidata l'indagine sulla scomparsa di una donna terrestre, Julie Andromeda Mao, e il secondo ufficiale del cargo portaghiaccio Canterbury, James Holden, inavvertitamente coinvolto in un incidente che rischia di destabilizzare irreversibilmente le relazioni tra Marte e la Terra e innescare un conflitto interplanetario.

df7f6815716b4fc9809cb6213374752a.mkv (2.1 GB)



General
Unique ID : 160496942328201694060955547744209272734 (0x78BE96335D19D53EFF5528153DB4FF9E)
Complete name : ./df7f6815716b4fc9809cb6213374752a.mkv
Format : Matroska
Format version : Version 4 / Version 2
File size : 2.10 GiB
Duration : 43 min 11 s
Overall bit rate : 6 956 kb/s
Encoded date : UTC 2018-05-31 07:25:03
Writing application : mkvmerge v21.0.0 ('Tardigrades Will Inherit The Earth') 64-bit
Writing library : libebml v1.3.5 + libmatroska v1.4.8

Video
ID : 1
Format : AVC
Format/Info : Advanced Video Codec
Format profile : High@L4
Format settings : CABAC / 4 Ref Frames
Format settings, CABAC : Yes
Format settings, RefFrames : 4 frames
Codec ID : V_MPEG4/ISO/AVC
Duration : 43 min 11 s
Bit rate : 6 313 kb/s
Width : 1 920 pixels
Height : 1 080 pixels
Display aspect ratio : 16:9
Frame rate mode : Constant
Frame rate : 23.976 (24000/1001) FPS
Color space : YUV
Chroma subsampling : 4:2:0
Bit depth : 8 bits
Scan type : Progressive
Bits/(Pixel*Frame) : 0.127
Stream size : 1.90 GiB (91%)
Default : Yes
Forced : No
Color range : Limited
Color primaries : BT.709
Transfer characteristics : BT.709
Matrix coefficients : BT.709

Audio
ID : 2
Format : E-AC-3
Format/Info : Enhanced Audio Coding 3
Format settings, Endianness : Big
Codec ID : A_EAC3
Duration : 43 min 11 s
Bit rate mode : Constant
Bit rate : 640 kb/s
Channel(s) : 6 channels
Channel positions : Front: L C R, Side: L R, LFE
Sampling rate : 48.0 kHz
Frame rate : 187.500 FPS (256 SPF)
Compression mode : Lossy
Stream size : 198 MiB (9%)
Language : English
Service kind : Complete Main
Default : Yes
Forced : No

Text #1
ID : 3
Format : UTF-8
Codec ID : S_TEXT/UTF8
Codec ID/Info : UTF-8 Plain Text
Duration : 41 min 56 s
Bit rate : 63 b/s
Count of elements : 805
Stream size : 19.6 KiB (0%)
Language : English
Default : No
Forced : No

Text #2
ID : 4
Format : UTF-8
Codec ID : S_TEXT/UTF8
Codec ID/Info : UTF-8 Plain Text
Duration : 41 min 59 s
Bit rate : 71 b/s
Count of elements : 929
Stream size : 21.9 KiB (0%)
Title : SDH
Language : English
Default : No
Forced : No





The Expanse S03E08


The Expanse S03E08


The Expanse S03E08


The Expanse S03E08


The Expanse S03E08

All episodes