Featured TV Shows


The Expanse S04E01

Posted By: Tavaz
1080p (FullHD) / WEBRip IMDb
The Expanse S04E01

The Expanse S04E01
WEBRip | MKV | 1920x1080 | French / English | H264 @ 6733 kbps | E-AC-3 @ 640 kbps | 49 min 17 s | 2.76 GiB
Subtitles: French, English
Genre: Drama, Mystery


A thriller set two hundred years in the future following the case of a missing young woman who brings a hardened detective and a rogue ship's captain together in a race across the solar system to expose the greatest conspiracy in human history.

8799a30baed849249a16ce6c3cbeac40.mkv (2.8 GB)



General
Unique ID : 328791881644615453015553151460267384552 (0xF75B035622C796356AC4279DEF35DEE8)
Complete name : ./8799a30baed849249a16ce6c3cbeac40.mkv
Format : Matroska
Format version : Version 4 / Version 2
File size : 2.76 GiB
Duration : 49 min 17 s
Overall bit rate : 8 016 kb/s
Encoded date : UTC 2019-12-13 00:03:46
Writing application : mkvmerge v41.0.0 ('Smarra') 64-bit
Writing library : libebml v1.3.9 + libmatroska v1.5.2

Video
ID : 1
Format : AVC
Format/Info : Advanced Video Codec
Format profile : High@L4
Format settings : CABAC / 4 Ref Frames
Format settings, CABAC : Yes
Format settings, RefFrames : 4 frames
Codec ID : V_MPEG4/ISO/AVC
Duration : 49 min 17 s
Bit rate mode : Constant
Bit rate : 6 733 kb/s
Nominal bit rate : 10 000 kb/s
Width : 1 920 pixels
Height : 1 080 pixels
Display aspect ratio : 16:9
Frame rate mode : Constant
Frame rate : 23.976 (24000/1001) FPS
Color space : YUV
Chroma subsampling : 4:2:0
Bit depth : 8 bits
Scan type : Progressive
Bits/(Pixel*Frame) : 0.135
Stream size : 2.32 GiB (84%)
Default : Yes
Forced : No
Color range : Limited
Color primaries : BT.709
Transfer characteristics : BT.709
Matrix coefficients : BT.709

Audio #1
ID : 2
Format : E-AC-3
Format/Info : Enhanced Audio Coding 3
Format settings, Endianness : Big
Codec ID : A_EAC3
Duration : 49 min 17 s
Bit rate mode : Constant
Bit rate : 640 kb/s
Channel(s) : 6 channels
Channel positions : Front: L C R, Side: L R, LFE
Sampling rate : 48.0 kHz
Frame rate : 187.500 FPS (256 SPF)
Compression mode : Lossy
Stream size : 226 MiB (8%)
Title : French
Language : French
Service kind : Complete Main
Default : Yes
Forced : No

Audio #2
ID : 3
Format : E-AC-3
Format/Info : Enhanced Audio Coding 3
Format settings, Endianness : Big
Codec ID : A_EAC3
Duration : 49 min 17 s
Bit rate mode : Constant
Bit rate : 640 kb/s
Channel(s) : 6 channels
Channel positions : Front: L C R, Side: L R, LFE
Sampling rate : 48.0 kHz
Frame rate : 187.500 FPS (256 SPF)
Compression mode : Lossy
Stream size : 226 MiB (8%)
Title : English
Language : English
Service kind : Complete Main
Default : No
Forced : No

Text #1
ID : 4
Format : UTF-8
Codec ID : S_TEXT/UTF8
Codec ID/Info : UTF-8 Plain Text
Duration : 30 min 49 s
Bit rate : 2 b/s
Count of elements : 17
Stream size : 521 Bytes (0%)
Title : French (Forced)
Language : French
Default : Yes
Forced : Yes

Text #2
ID : 5
Format : UTF-8
Codec ID : S_TEXT/UTF8
Codec ID/Info : UTF-8 Plain Text
Duration : 46 min 37 s
Bit rate : 55 b/s
Count of elements : 534
Stream size : 19.0 KiB (0%)
Title : French
Language : French
Default : No
Forced : No

Text #3
ID : 6
Format : UTF-8
Codec ID : S_TEXT/UTF8
Codec ID/Info : UTF-8 Plain Text
Duration : 47 min 6 s
Bit rate : 61 b/s
Count of elements : 765
Stream size : 21.1 KiB (0%)
Title : English
Language : English
Default : No
Forced : No

Menu
00:00:00.000 : en:1. Amazon Original
00:00:05.000 : en:2. Previous Season
00:01:35.000 : en:3. Opening Credits
00:02:43.000 : en:4. Blockade running
00:05:00.000 : en:5. The next clue to the case
00:08:32.000 : en:6. A call from Peaches
00:11:34.000 : en:7. The investigator gets his wish
00:15:03.000 : en:8. The roci and her crew prepares for the long haul
00:17:02.000 : en:9. Bobbie tries to settle in
00:21:20.000 : en:10. A pirate's perspective
00:24:40.000 : en:11. Belter determination
00:26:01.000 : en:12. The Roci flies by Medina Station
00:29:52.000 : en:13. Trading war stories
00:31:50.000 : en:14. My friend had a boyfriend with an imaginary friend
00:33:32.000 : en:15. Ilus v. New Tera
00:38:59.000 : en:16. Down the well
00:44:27.000 : en:17. Traitors or saviors
00:47:04.000 : en:18. End Credits





The Expanse S04E01


The Expanse S04E01


The Expanse S04E01


The Expanse S04E01


The Expanse S04E01

All episodes