Featured TV Shows


The Expanse S04E07

Posted By: Tavaz
1080p (FullHD) / WEBRip IMDb
The Expanse S04E07

The Expanse S04E07
WEBRip | MKV | 1920x1080 | French / English | H264 @ 7225 kbps | E-AC-3 @ 640 kbps | 44 min 26 s | 2.64 GiB
Subtitles: French, English
Genre: Drama, Mystery


A thriller set two hundred years in the future following the case of a missing young woman who brings a hardened detective and a rogue ship's captain together in a race across the solar system to expose the greatest conspiracy in human history.

63f270cf550b425d9698fb6f3c29f086.mkv (2.6 GB)



General
Unique ID : 188779979428697341817575505606467053712 (0x8E05B3975B09D4A5AF7D2E0781FAE890)
Complete name : ./63f270cf550b425d9698fb6f3c29f086.mkv
Format : Matroska
Format version : Version 4 / Version 2
File size : 2.64 GiB
Duration : 44 min 26 s
Overall bit rate : 8 508 kb/s
Encoded date : UTC 2019-12-13 00:21:02
Writing application : mkvmerge v41.0.0 ('Smarra') 64-bit
Writing library : libebml v1.3.9 + libmatroska v1.5.2

Video
ID : 1
Format : AVC
Format/Info : Advanced Video Codec
Format profile : High@L4
Format settings : CABAC / 4 Ref Frames
Format settings, CABAC : Yes
Format settings, RefFrames : 4 frames
Codec ID : V_MPEG4/ISO/AVC
Duration : 44 min 26 s
Bit rate mode : Constant
Bit rate : 7 226 kb/s
Nominal bit rate : 10 000 kb/s
Width : 1 920 pixels
Height : 1 080 pixels
Display aspect ratio : 16:9
Frame rate mode : Constant
Frame rate : 23.976 (24000/1001) FPS
Color space : YUV
Chroma subsampling : 4:2:0
Bit depth : 8 bits
Scan type : Progressive
Bits/(Pixel*Frame) : 0.145
Stream size : 2.24 GiB (85%)
Default : Yes
Forced : No
Color range : Limited
Color primaries : BT.709
Transfer characteristics : BT.709
Matrix coefficients : BT.709

Audio #1
ID : 2
Format : E-AC-3
Format/Info : Enhanced Audio Coding 3
Format settings, Endianness : Big
Codec ID : A_EAC3
Duration : 44 min 26 s
Bit rate mode : Constant
Bit rate : 640 kb/s
Channel(s) : 6 channels
Channel positions : Front: L C R, Side: L R, LFE
Sampling rate : 48.0 kHz
Frame rate : 187.500 FPS (256 SPF)
Compression mode : Lossy
Stream size : 203 MiB (8%)
Title : French
Language : French
Service kind : Complete Main
Default : Yes
Forced : No

Audio #2
ID : 3
Format : E-AC-3
Format/Info : Enhanced Audio Coding 3
Format settings, Endianness : Big
Codec ID : A_EAC3
Duration : 44 min 26 s
Bit rate mode : Constant
Bit rate : 640 kb/s
Channel(s) : 6 channels
Channel positions : Front: L C R, Side: L R, LFE
Sampling rate : 48.0 kHz
Frame rate : 187.500 FPS (256 SPF)
Compression mode : Lossy
Stream size : 203 MiB (8%)
Title : English
Language : English
Service kind : Complete Main
Default : No
Forced : No

Text #1
ID : 4
Format : UTF-8
Codec ID : S_TEXT/UTF8
Codec ID/Info : UTF-8 Plain Text
Duration : 32 min 28 s
Bit rate : 0 b/s
Count of elements : 2
Stream size : 60.0 Bytes (0%)
Title : French (Forced)
Language : French
Default : Yes
Forced : Yes

Text #2
ID : 5
Format : UTF-8
Codec ID : S_TEXT/UTF8
Codec ID/Info : UTF-8 Plain Text
Duration : 39 min 35 s
Bit rate : 81 b/s
Count of elements : 627
Stream size : 23.5 KiB (0%)
Title : French
Language : French
Default : No
Forced : No

Text #3
ID : 6
Format : UTF-8
Codec ID : S_TEXT/UTF8
Codec ID/Info : UTF-8 Plain Text
Duration : 42 min 2 s
Bit rate : 86 b/s
Count of elements : 880
Stream size : 26.7 KiB (0%)
Title : English
Language : English
Default : No
Forced : No

Menu
00:00:00.000 : en:1. Amazon Original
00:00:05.000 : en:2. Opening Credits
00:01:13.000 : en:3. Holden and Amos patrol the structure
00:04:52.000 : en:4. Eye infection
00:06:34.000 : en:5. Lucia learns about the Barb's situation
00:08:01.000 : en:6. Fallible
00:11:34.000 : en:7. UNN's hunt for Inaros begins
00:14:11.000 : en:8. Tensions rise in the shelter
00:20:38.000 : en:9. Felcia and Naomi work together
00:24:24.000 : en:10. Holden confides in Amos
00:25:58.000 : en:11. Crisjen apologizes
00:28:45.000 : en:12. Alex tries to cheer Lucia up
00:33:28.000 : en:13. A new threat
00:39:04.000 : en:14. Strike on the Pizzouza
00:42:12.000 : en:15. End Credits





The Expanse S04E07


The Expanse S04E07


The Expanse S04E07


The Expanse S04E07


The Expanse S04E07

All episodes