Featured TV Shows


The Expanse S04E10

Posted By: Tavaz
1080p (FullHD) / WEBRip IMDb
The Expanse S04E10

The Expanse S04E10
WEBRip | MKV | 1920x1080 | English | H264 @ 6550 kbps | E-AC-3 @ 640 kbps | 48 min 35 s | 2.44 GiB
Subtitles: English
Genre: Drama, Mystery


A thriller set two hundred years in the future following the case of a missing young woman who brings a hardened detective and a rogue ship's captain together in a race across the solar system to expose the greatest conspiracy in human history.

aafbb2f9172c4d44842920d1587e2fe2.mkv (2.4 GB)



General
Unique ID : 41051409736059707036669887098032913739 (0x1EE236C3EB77314EFF6C272AEECE7D4B)
Complete name : ./aafbb2f9172c4d44842920d1587e2fe2.mkv
Format : Matroska
Format version : Version 4 / Version 2
File size : 2.44 GiB
Duration : 48 min 35 s
Overall bit rate : 7 192 kb/s
Encoded date : UTC 2019-12-13 00:14:20
Writing application : mkvmerge v41.0.0 ('Smarra') 64-bit
Writing library : libebml v1.3.9 + libmatroska v1.5.2

Video
ID : 1
Format : AVC
Format/Info : Advanced Video Codec
Format profile : High@L4
Format settings : CABAC / 4 Ref Frames
Format settings, CABAC : Yes
Format settings, RefFrames : 4 frames
Codec ID : V_MPEG4/ISO/AVC
Duration : 48 min 35 s
Bit rate mode : Constant
Bit rate : 6 550 kb/s
Nominal bit rate : 10 000 kb/s
Width : 1 920 pixels
Height : 1 080 pixels
Display aspect ratio : 16:9
Frame rate mode : Constant
Frame rate : 23.976 (24000/1001) FPS
Color space : YUV
Chroma subsampling : 4:2:0
Bit depth : 8 bits
Scan type : Progressive
Bits/(Pixel*Frame) : 0.132
Stream size : 2.22 GiB (91%)
Language : English
Default : Yes
Forced : No
Color range : Limited
Color primaries : BT.709
Transfer characteristics : BT.709
Matrix coefficients : BT.709

Audio
ID : 2
Format : E-AC-3
Format/Info : Enhanced Audio Coding 3
Format settings, Endianness : Big
Codec ID : A_EAC3
Duration : 48 min 35 s
Bit rate mode : Constant
Bit rate : 640 kb/s
Channel(s) : 6 channels
Channel positions : Front: L C R, Side: L R, LFE
Sampling rate : 48.0 kHz
Frame rate : 187.500 FPS (256 SPF)
Compression mode : Lossy
Stream size : 222 MiB (9%)
Title : English
Language : English
Service kind : Complete Main
Default : Yes
Forced : No

Text
ID : 3
Format : UTF-8
Codec ID : S_TEXT/UTF8
Codec ID/Info : UTF-8 Plain Text
Duration : 46 min 12 s
Bit rate : 65 b/s
Count of elements : 789
Stream size : 22.2 KiB (0%)
Title : English (SDH)
Language : English
Default : No
Forced : No





The Expanse S04E10


The Expanse S04E10


The Expanse S04E10


The Expanse S04E10


The Expanse S04E10

All episodes