Index
# A B C D E F G H I J K L M N O P Q R S T U V W Y Z
Tags
Language
Tags

Featured TV Shows


The Falcon and the Winter Soldier S01E06

Posted By: Tavaz
1080p (FullHD) / WEB-DL IMDb
The Falcon and the Winter Soldier S01E06

The Falcon and the Winter Soldier S01E06
WEB-DL | MKV | 1920x1080 | English | H264 @ 7277 kbps | E-AC-3 @ 768 kbps | 48 min 40 s | 2.74 GiB
Genre: Drama


Following the events of “Avengers: Endgame”, the Falcon, Sam Wilson and the Winter Soldier, Bucky Barnes team up in a global adventure that tests their abilities, and their patience.

94ab4374a9cb4ecaa8dd7c4cea81d822.mkv (2.7 GB)



General
Unique ID : 321716734209775859293942462051553054268 (0xF20863A2C689FD39A525CC95FC6F0E3C)
Complete name : ./94ab4374a9cb4ecaa8dd7c4cea81d822.mkv
Format : Matroska
Format version : Version 4 / Version 2
File size : 2.74 GiB
Duration : 48 min 40 s
Overall bit rate mode : Variable
Overall bit rate : 8 047 kb/s
Encoded date : UTC 2021-04-23 06:51:40
Writing application : mkvmerge v44.0.0 ('Domino') 64-bit
Writing library : libebml v1.3.10 + libmatroska v1.5.2

Video
ID : 1
Format : AVC
Format/Info : Advanced Video Codec
Format profile : High@L4
Format settings : CABAC / 4 Ref Frames
Format settings, CABAC : Yes
Format settings, RefFrames : 4 frames
Codec ID : V_MPEG4/ISO/AVC
Duration : 48 min 40 s
Bit rate mode : Variable
Bit rate : 7 277 kb/s
Maximum bit rate : 12.7 Mb/s
Width : 1 920 pixels
Height : 1 080 pixels
Display aspect ratio : 16:9
Frame rate mode : Constant
Frame rate : 24.000 FPS
Color space : YUV
Chroma subsampling : 4:2:0
Bit depth : 8 bits
Scan type : Progressive
Bits/(Pixel*Frame) : 0.146
Stream size : 2.47 GiB (90%)
Default : Yes
Forced : No
Color range : Limited
Color primaries : BT.709
Transfer characteristics : BT.709
Matrix coefficients : BT.709

Audio
ID : 2
Format : E-AC-3
Format/Info : Enhanced Audio Coding 3
Format profile : E-AC-3+Atmos / E-AC-3
Format settings, Endianness : Big
Codec ID : A_EAC3
Duration : 48 min 40 s
Bit rate mode : Constant
Bit rate : 768 kb/s
Channel(s) : 15 objects / 6 channels
Channel positions : 15 objects / Front: L C R, Side: L R, LFE
Sampling rate : 48.0 kHz
Frame rate : 187.500 FPS (256 SPF)
Compression mode : Lossy
Stream size : 267 MiB (10%)
Title : English
Language : English
Service kind : Complete Main
Default : Yes
Forced : No





The Falcon and the Winter Soldier S01E06


The Falcon and the Winter Soldier S01E06


The Falcon and the Winter Soldier S01E06


The Falcon and the Winter Soldier S01E06


The Falcon and the Winter Soldier S01E06

All episodes